Loading...
Error
Регистрация  · 
Имя: Пароль:    
 ·  Забыли пароль?
Правила пользования ресурсом

Обладатель VIP статуса на 24 часа: Meacrv
стань следующим читай правила
Сегодня идет свободное скачивание без начисления скачанного

(Symphony) Mozart - Symphonies Nos 40 & 41 "Jupiter" - Vienna Symphony Orchestra - Ferenc Fricsay - 1993, FLAC (image+.cue), lossless

Ответить на тему
 
Автор Сообщение

singer


post 23-Янв-2011 18:24

 

Wolfgang Amadeus Mozart
Symphonies Nos 40 & 41 "Jupiter"

Жанр: Classical / Symphonic
Год выпуска диска: 1993
Производитель диска: England
Аудио кодек: FLAC
Битрейт: lossless
Тип рипа: image+.cue
Продолжительность: 58:32
Трэклист:
Symphony No. 41 in D major, K. 551 'Jupiter'
1. Allegro vivace (08:24)
2. Andante cantabile (09:42)
3. Menuetto — Allegretto (04:55)
4. Finale — Molto allegro (06:23)

Symphony No. 40 in G minor, K. 550
5. Allegro molto (09:19)
6. Andante (09:11)
7. Menuetto — Allegretto (04:26)
8. Allegro assai (05:09)
Исполнитель:
Vienna Symphony Orchestra,
Ferenc Fricsay,
conductor

Запись произведена на студии Deutche Grammophon
Дата записи: 1961 г. (1-4), 1960 г. (5-8)
Exact Audio Copy V0.99 prebeta 4 from 23. January 2008
Отчёт EAC об извлечении, выполненном 29. марта 2009, 19:34
Wolfgang Amadeus Mozart / Symphony No. 40 & 41 "Jupiter"
Дисковод: Optiarc DVD RW AD-7540A Adapter: 0 ID: 0
Режим чтения : Достоверность
Использование точного потока : Да
Отключение кэша аудио : Да
Использование указателей C2 : Нет
Коррекция смещения при чтении : 48
Способность читать области Lead-in и Lead-out : Нет
Заполнение пропущенных сэмплов тишиной : Да
Удаление блоков с тишиной в начале и конце : Нет
При вычислениях CRC использовались нулевые сэмплы : Да
Интерфейс : Установленный внешний ASPI-интерфейс
Выходной формат : Внутренние WAV-операции
Формат сэмплов : 44.100 Гц; 16 бит; стерео
TOC извлечённого CD
Трек | Старт | Длительность | Начальный сектор | Конечный сектор
---------------------------------------------------------------------
1 | 0:00.33 | 8:34.00 | 33 | 38582
2 | 8:34.33 | 9:47.00 | 38583 | 82607
3 | 18:21.33 | 4:59.00 | 82608 | 105032
4 | 23:20.33 | 6:36.00 | 105033 | 134732
5 | 29:56.33 | 9:30.00 | 134733 | 177482
6 | 39:26.33 | 9:19.00 | 177483 | 219407
7 | 48:45.33 | 4:32.00 | 219408 | 239807
8 | 53:17.33 | 5:15.00 | 239808 | 263432
Характеристики диапазона извлечения и сообщения об ошибках
Выбранный диапазон
Имя файла G:\Музыка\Классика\Wolfgang Amadeus Mozart\Symphonies Nos 40 & 41 'Jupiter'\Wolfgang Amadeus Mozart - Symphony No. 40 & 41 Jupiter.wav
Пиковый уровень 94.4 %
Качество диапазона 100.0 %
CRC копии 1B5F8CF0
Копирование... OK
Ошибок не произошло
AccurateRip: сводка
Трек 1 точное извлечение (доверие 2) [1F524591]
Трек 2 точное извлечение (доверие 2) [CEB51AE0]
Трек 3 точное извлечение (доверие 2) [9149E45A]
Трек 4 точное извлечение (доверие 2) [25ADEA3E]
Трек 5 точное извлечение (доверие 2) [FAB20410]
Трек 6 точное извлечение (доверие 2) [0D0AFA22]
Трек 7 точное извлечение (доверие 2) [04714E80]
Трек 8 точное извлечение (доверие 2) [F7F1CAB0]
Все треки извлечены точно
Конец отчёта
Download

Скачать (бесплатно и на максимальной скорости)!

Как скачивать  ·   Что такое torrent (торрент)  ·   Рейтинг и ограничения

Сайт не распространяет и не хранит электронные версии произведений, а лишь предоставляет доступ к создаваемому пользователями каталогу ссылок на торрент-файлы, которые содержат только списки хеш-сумм


 
Показать сообщения:    
Ответить на тему

Текущее время: 04-Дек 13:16

Часовой пояс: GMT + 3



Вы не можете начинать темы
Вы не можете отвечать на сообщения
Вы не можете редактировать свои сообщения
Вы не можете удалять свои сообщения
Вы не можете голосовать в опросах
Вы не можете прикреплять файлы к сообщениям
Вы не можете скачивать файлы



В начало страницы  •