Loading...
Error
Регистрация  · 
Имя: Пароль:    
 ·  Забыли пароль?
Правила пользования ресурсом

Обладатель VIP статуса на 24 часа: Meacrv
стань следующим читай правила
Сегодня идет свободное скачивание без начисления скачанного

(Concerto)Antonio Vivaldi - Le quattro stagioni - Violin Concertos RV 199, RV 347, RV 356 - Itzhak Perlman (Антонио Вивальди - Времена года - Скрипичные концерты RV 199, RV 347, RV 356 - Ицхак Перлман) - 2003, FLAC (tracks+.cue), lossless

Ответить на тему
 
Автор Сообщение

singer


post 23-Янв-2011 18:09

 

Antonio Vivaldi
The Four Seasons
Violin Concertos RV 199, RV 347, RV 356
Itzhak Perlman
London Philharmonic Orchestra
Israel Philharmonic Orchestra

Жанр: Classical
Год выпуска диска: 2003
Производитель диска: England
Аудио кодек: FLAC
Тип рипа: tracks+.cue
Битрейт аудио: lossless
Продолжительность: 73.03
Трэклист:
The Four Seasons:

Concerto No.1 in E, RV 269 'Spring'
1. I. Allegro 3:19
2. II. Largo 2:39
3. III. Allegro 4:41

Concerto No.2 in g, RV 315 'Summer'
4. I. Allegro Non Molto 6:11
5. II. Adagio 2:41
6. III. Presto 2:59

Concerto No.3 in F, RV 293 'Autumn'
7. I. Allegro 5:18
8. II. Adagio Molto 3:04
9. III. Allegro 3:12

Concerto No.4 in f, RV 297 'Winter'
10. I. Allegro Non Molto 3:32
11. II. Largo 2:28
12. III. Allegro 3:19

Violin Concerto in c, RV 199 'Il Sospetto'*
13. I. Allegro 3:52
14. II. Andante 2:50
15. III. Allegro 2:25

Violin Concerto in a, RV 356*
16. I. Allegro 3:18
17. II. Largo 2:36
18. III. Presto 2:47

Violin Concerto in A, RV 347*
19. I. Allegro 3:56
20. II. Largo 2:42
21. III. Allegro 3:34
Исполнители:
Itzhak Perlman, violin & conductor
London Philharmonic Orchestra (1976)
Israel Philharmonic Orchestra* (1982-83)
Exact Audio Copy V0.99 prebeta 5 from 4. May 2009
EAC extraction logfile from 8. December 2009, 20:33
Itzhak Perlman / Itzhak Perlman
Used drive : Optiarc DVD RW AD-7203A Adapter: 4 ID: 0
Read mode : Secure
Utilize accurate stream : Yes
Defeat audio cache : Yes
Make use of C2 pointers : No
Read offset correction : 48
Overread into Lead-In and Lead-Out : No
Fill up missing offset samples with silence : Yes
Delete leading and trailing silent blocks : No
Null samples used in CRC calculations : Yes
Used interface : Installed external ASPI interface
Gap handling : Appended to previous track
Used output format : User Defined Encoder
Selected bitrate : 1024 kBit/s
Quality : High
Add ID3 tag : No
Command line compressor : C:\Program Files\Exact Audio Copy\FLAC\FLAC.EXE
Additional command line options : -8 -V -T "ARTIST=%a" -T "TITLE=%t" -T "ALBUM=%g" -T "DATE=%y" -T "TRACKNUMBER=%n" -T "GENRE=%m" -T "COMMENT=EAC FLAC -8" %s
TOC of the extracted CD
Track | Start | Length | Start sector | End sector
---------------------------------------------------------
1 | 0:00.00 | 3:22.54 | 0 | 15203
2 | 3:22.54 | 2:42.70 | 15204 | 27423
3 | 6:05.49 | 4:49.07 | 27424 | 49105
4 | 10:54.56 | 6:14.62 | 49106 | 77217
5 | 17:09.43 | 2:44.69 | 77218 | 89586
6 | 19:54.37 | 3:06.00 | 89587 | 103536
7 | 23:00.37 | 5:21.67 | 103537 | 127678
8 | 28:22.29 | 3:07.17 | 127679 | 141720
9 | 31:29.46 | 3:20.39 | 141721 | 156759
10 | 34:50.10 | 3:36.00 | 156760 | 172959
11 | 38:26.10 | 2:32.12 | 172960 | 184371
12 | 40:58.22 | 3:29.17 | 184372 | 200063
13 | 44:27.39 | 3:57.07 | 200064 | 217845
14 | 48:24.46 | 2:53.72 | 217846 | 230892
15 | 51:18.43 | 2:29.52 | 230893 | 242119
16 | 53:48.20 | 3:22.37 | 242120 | 257306
17 | 57:10.57 | 2:39.17 | 257307 | 269248
18 | 59:49.74 | 2:52.32 | 269249 | 282180
19 | 62:42.31 | 3:59.72 | 282181 | 300177
20 | 66:42.28 | 2:45.62 | 300178 | 312614
21 | 69:28.15 | 3:34.25 | 312615 | 328689
Track 1
Filename F:\Мои документы\Музыка\Классика\Itzhak Perlman\01. Itzhak Perlman - Track01.wav
Pre-gap length 0:00:02.00
Peak level 62.5 %
Track quality 100.0 %
Test CRC 52A93C19
Copy CRC 52A93C19
Track not present in AccurateRip database
Copy OK
Track 2
Filename F:\Мои документы\Музыка\Классика\Itzhak Perlman\02. Itzhak Perlman - Track02.wav
Pre-gap length 0:00:02.00
Peak level 15.3 %
Track quality 100.0 %
Test CRC 66654279
Copy CRC 66654279
Track not present in AccurateRip database
Copy OK
Track 3
Filename F:\Мои документы\Музыка\Классика\Itzhak Perlman\03. Itzhak Perlman - Track03.wav
Pre-gap length 0:00:02.00
Peak level 54.0 %
Track quality 100.0 %
Test CRC 378BD638
Copy CRC 378BD638
Track not present in AccurateRip database
Copy OK
Track 4
Filename F:\Мои документы\Музыка\Классика\Itzhak Perlman\04. Itzhak Perlman - Track04.wav
Pre-gap length 0:00:02.00
Peak level 81.1 %
Track quality 100.0 %
Test CRC E7DBB986
Copy CRC E7DBB986
Track not present in AccurateRip database
Copy OK
Track 5
Filename F:\Мои документы\Музыка\Классика\Itzhak Perlman\05. Itzhak Perlman - Track05.wav
Pre-gap length 0:00:02.00
Peak level 61.9 %
Track quality 100.0 %
Test CRC BC236E46
Copy CRC BC236E46
Track not present in AccurateRip database
Copy OK
Track 6
Filename F:\Мои документы\Музыка\Классика\Itzhak Perlman\06. Itzhak Perlman - Track06.wav
Pre-gap length 0:00:02.00
Peak level 94.3 %
Track quality 100.0 %
Test CRC A86F8251
Copy CRC A86F8251
Track not present in AccurateRip database
Copy OK
Track 7
Filename F:\Мои документы\Музыка\Классика\Itzhak Perlman\07. Itzhak Perlman - Track07.wav
Pre-gap length 0:00:02.00
Peak level 59.4 %
Track quality 100.0 %
Test CRC DB5546E0
Copy CRC DB5546E0
Track not present in AccurateRip database
Copy OK
Track 8
Filename F:\Мои документы\Музыка\Классика\Itzhak Perlman\08. Itzhak Perlman - Track08.wav
Pre-gap length 0:00:02.00
Peak level 7.6 %
Track quality 100.0 %
Test CRC 118318FE
Copy CRC 118318FE
Track not present in AccurateRip database
Copy OK
Track 9
Filename F:\Мои документы\Музыка\Классика\Itzhak Perlman\09. Itzhak Perlman - Track09.wav
Pre-gap length 0:00:02.00
Peak level 84.4 %
Track quality 100.0 %
Test CRC DB38ED5A
Copy CRC DB38ED5A
Track not present in AccurateRip database
Copy OK
Track 10
Filename F:\Мои документы\Музыка\Классика\Itzhak Perlman\10. Itzhak Perlman - Track10.wav
Pre-gap length 0:00:02.00
Peak level 85.4 %
Track quality 100.0 %
Test CRC B3C270E6
Copy CRC B3C270E6
Track not present in AccurateRip database
Copy OK
Track 11
Filename F:\Мои документы\Музыка\Классика\Itzhak Perlman\11. Itzhak Perlman - Track11.wav
Pre-gap length 0:00:02.00
Peak level 33.7 %
Track quality 100.0 %
Test CRC 57FA6030
Copy CRC 57FA6030
Track not present in AccurateRip database
Copy OK
Track 12
Filename F:\Мои документы\Музыка\Классика\Itzhak Perlman\12. Itzhak Perlman - Track12.wav
Pre-gap length 0:00:02.00
Peak level 71.3 %
Track quality 100.0 %
Test CRC 4D532533
Copy CRC 4D532533
Track not present in AccurateRip database
Copy OK
Track 13
Filename F:\Мои документы\Музыка\Классика\Itzhak Perlman\13. Itzhak Perlman - Track13.wav
Pre-gap length 0:00:02.00
Peak level 99.6 %
Track quality 99.9 %
Test CRC A9224E51
Copy CRC A9224E51
Track not present in AccurateRip database
Copy OK
Track 14
Filename F:\Мои документы\Музыка\Классика\Itzhak Perlman\14. Itzhak Perlman - Track14.wav
Pre-gap length 0:00:02.00
Peak level 40.3 %
Track quality 100.0 %
Test CRC 4D6025AF
Copy CRC 4D6025AF
Track not present in AccurateRip database
Copy OK
Track 15
Filename F:\Мои документы\Музыка\Классика\Itzhak Perlman\15. Itzhak Perlman - Track15.wav
Pre-gap length 0:00:02.00
Peak level 84.5 %
Track quality 100.0 %
Test CRC B892600C
Copy CRC B892600C
Track not present in AccurateRip database
Copy OK
Track 16
Filename F:\Мои документы\Музыка\Классика\Itzhak Perlman\16. Itzhak Perlman - Track16.wav
Pre-gap length 0:00:02.00
Peak level 97.7 %
Track quality 100.0 %
Test CRC E6BE84DF
Copy CRC E6BE84DF
Track not present in AccurateRip database
Copy OK
Track 17
Filename F:\Мои документы\Музыка\Классика\Itzhak Perlman\17. Itzhak Perlman - Track17.wav
Pre-gap length 0:00:02.00
Peak level 27.2 %
Track quality 100.0 %
Test CRC 4AEB9822
Copy CRC 4AEB9822
Track not present in AccurateRip database
Copy OK
Track 18
Filename F:\Мои документы\Музыка\Классика\Itzhak Perlman\18. Itzhak Perlman - Track18.wav
Pre-gap length 0:00:02.00
Peak level 97.7 %
Track quality 100.0 %
Test CRC 1DF96777
Copy CRC 1DF96777
Track not present in AccurateRip database
Copy OK
Track 19
Filename F:\Мои документы\Музыка\Классика\Itzhak Perlman\19. Itzhak Perlman - Track19.wav
Pre-gap length 0:00:02.00
Peak level 97.7 %
Track quality 100.0 %
Test CRC 09D1D611
Copy CRC 09D1D611
Track not present in AccurateRip database
Copy OK
Track 20
Filename F:\Мои документы\Музыка\Классика\Itzhak Perlman\20. Itzhak Perlman - Track20.wav
Pre-gap length 0:00:02.00
Peak level 35.8 %
Track quality 100.0 %
Test CRC DE19D5B8
Copy CRC DE19D5B8
Track not present in AccurateRip database
Copy OK
Track 21
Filename F:\Мои документы\Музыка\Классика\Itzhak Perlman\21. Itzhak Perlman - Track21.wav
Pre-gap length 0:00:02.00
Peak level 89.0 %
Track quality 100.0 %
Test CRC 971283FB
Copy CRC 971283FB
Track not present in AccurateRip database
Copy OK
None of the tracks are present in the AccurateRip database
No errors occurred
End of status report
Download

Скачать (бесплатно и на максимальной скорости)!

Как скачивать  ·   Что такое torrent (торрент)  ·   Рейтинг и ограничения

Сайт не распространяет и не хранит электронные версии произведений, а лишь предоставляет доступ к создаваемому пользователями каталогу ссылок на торрент-файлы, которые содержат только списки хеш-сумм


 

watcher


post 20-Фев-2011 02:44

 

Файлы .cue с прописанными тегами для записи на CD и прослушивания:
REM GENRE Classical
REM DATE 2003
REM DISCID 14111E15
REM COMMENT "ExactAudioCopy v0.99pb5"
PERFORMER "Itzhak Perlman, London Philharmonic Orchestra, Israel Philharmonic Orchestra"
TITLE "Antonio Vivaldi - The Four Seasons, Violin Concertos RV 199, RV 356, RV 347"
FILE "01. Itzhak Perlman - Track01.wav" WAVE
TRACK 01 AUDIO
TITLE "Concerto No.1 in E, RV 269 'Spring' - I. Allegro"
PERFORMER "Itzhak Perlman, London Philharmonic Orchestra (1976)"
FLAGS DCP
INDEX 01 00:00:00
TRACK 02 AUDIO
TITLE "Concerto No.1 in E, RV 269 'Spring' - II. Largo"
PERFORMER "Itzhak Perlman, London Philharmonic Orchestra (1976)"
FLAGS DCP
INDEX 00 03:20:54
FILE "02. Itzhak Perlman - Track02.wav" WAVE
INDEX 01 00:00:00
TRACK 03 AUDIO
TITLE "Concerto No.1 in E, RV 269 'Spring' - III. Allegro"
PERFORMER "Itzhak Perlman, London Philharmonic Orchestra (1976)"
FLAGS DCP
INDEX 00 02:40:70
FILE "03. Itzhak Perlman - Track03.wav" WAVE
INDEX 01 00:00:00
TRACK 04 AUDIO
TITLE "Concerto No.2 in G, RV 315 'Summer' - I. Allegro Non Molto"
PERFORMER "Itzhak Perlman, London Philharmonic Orchestra (1976)"
FLAGS DCP
INDEX 00 04:47:07
FILE "04. Itzhak Perlman - Track04.wav" WAVE
INDEX 01 00:00:00
TRACK 05 AUDIO
TITLE "Concerto No.2 in G, RV 315 'Summer' - II. Adagio"
PERFORMER "Itzhak Perlman, London Philharmonic Orchestra (1976)"
FLAGS DCP
INDEX 00 06:12:62
FILE "05. Itzhak Perlman - Track05.wav" WAVE
INDEX 01 00:00:00
TRACK 06 AUDIO
TITLE "Concerto No.2 in G, RV 315 'Summer' - III. Presto"
PERFORMER "Itzhak Perlman, London Philharmonic Orchestra (1976)"
FLAGS DCP
INDEX 00 02:42:69
FILE "06. Itzhak Perlman - Track06.wav" WAVE
INDEX 01 00:00:00
TRACK 07 AUDIO
TITLE "Concerto No.3 in F, RV 293 'Autumn' - I. Allegro"
PERFORMER "Itzhak Perlman, London Philharmonic Orchestra (1976)"
FLAGS DCP
INDEX 00 03:04:00
FILE "07. Itzhak Perlman - Track07.wav" WAVE
INDEX 01 00:00:00
TRACK 08 AUDIO
TITLE "Concerto No.3 in F, RV 293 'Autumn' - II. Adagio Molto"
PERFORMER "Itzhak Perlman, London Philharmonic Orchestra (1976)"
FLAGS DCP
INDEX 00 05:19:67
FILE "08. Itzhak Perlman - Track08.wav" WAVE
INDEX 01 00:00:00
TRACK 09 AUDIO
TITLE "Concerto No.3 in F, RV 293 'Autumn' - III. Allegro"
PERFORMER "Itzhak Perlman, London Philharmonic Orchestra (1976)"
FLAGS DCP
INDEX 00 03:05:17
FILE "09. Itzhak Perlman - Track09.wav" WAVE
INDEX 01 00:00:00
TRACK 10 AUDIO
TITLE "Concerto No.4 in F, RV 297 'Winter' - I. Allegro Non Molto"
PERFORMER "Itzhak Perlman, London Philharmonic Orchestra (1976)"
FLAGS DCP
INDEX 00 03:18:39
FILE "10. Itzhak Perlman - Track10.wav" WAVE
INDEX 01 00:00:00
TRACK 11 AUDIO
TITLE "Concerto No.4 in F, RV 297 'Winter' - II. Largo"
PERFORMER "Itzhak Perlman, London Philharmonic Orchestra (1976)"
FLAGS DCP
INDEX 00 03:34:00
FILE "11. Itzhak Perlman - Track11.wav" WAVE
INDEX 01 00:00:00
TRACK 12 AUDIO
TITLE "Concerto No.4 in F, RV 297 'Winter' - III. Allegro"
PERFORMER "Itzhak Perlman, London Philharmonic Orchestra (1976)"
FLAGS DCP
INDEX 00 02:30:12
FILE "12. Itzhak Perlman - Track12.wav" WAVE
INDEX 01 00:00:00
TRACK 13 AUDIO
TITLE "Violin Concerto in C, RV 199 'Il Sospetto' - I. Allegro"
PERFORMER "Itzhak Perlman, Israel Philharmonic Orchestra (1982, 1983)"
FLAGS DCP
INDEX 00 03:27:17
FILE "13. Itzhak Perlman - Track13.wav" WAVE
INDEX 01 00:00:00
TRACK 14 AUDIO
TITLE "Violin Concerto in C, RV 199 'Il Sospetto' - II. Andante"
PERFORMER "Itzhak Perlman, Israel Philharmonic Orchestra (1982, 1983)"
FLAGS DCP
INDEX 00 03:55:07
FILE "14. Itzhak Perlman - Track14.wav" WAVE
INDEX 01 00:00:00
TRACK 15 AUDIO
TITLE "Violin Concerto in C, RV 199 'Il Sospetto' - III. Allegro"
PERFORMER "Itzhak Perlman, Israel Philharmonic Orchestra (1982, 1983)"
FLAGS DCP
INDEX 00 02:51:72
FILE "15. Itzhak Perlman - Track15.wav" WAVE
INDEX 01 00:00:00
TRACK 16 AUDIO
TITLE "Violin Concerto in A, RV 356 - I. Allegro"
PERFORMER "Itzhak Perlman, Israel Philharmonic Orchestra (1982, 1983)"
FLAGS DCP
INDEX 00 02:27:52
FILE "16. Itzhak Perlman - Track16.wav" WAVE
INDEX 01 00:00:00
TRACK 17 AUDIO
TITLE "Violin Concerto in A, RV 356 - II. Largo"
PERFORMER "Itzhak Perlman, Israel Philharmonic Orchestra (1982, 1983)"
FLAGS DCP
INDEX 00 03:20:37
FILE "17. Itzhak Perlman - Track17.wav" WAVE
INDEX 01 00:00:00
TRACK 18 AUDIO
TITLE "Violin Concerto in A, RV 356 - III. Presto"
PERFORMER "Itzhak Perlman, Israel Philharmonic Orchestra (1982, 1983)"
FLAGS DCP
INDEX 00 02:37:17
FILE "18. Itzhak Perlman - Track18.wav" WAVE
INDEX 01 00:00:00
TRACK 19 AUDIO
TITLE "Violin Concerto in A, RV 347 - I. Allegro"
PERFORMER "Itzhak Perlman, Israel Philharmonic Orchestra (1982, 1983)"
FLAGS DCP
INDEX 00 02:50:32
FILE "19. Itzhak Perlman - Track19.wav" WAVE
INDEX 01 00:00:00
TRACK 20 AUDIO
TITLE "Violin Concerto in A, RV 347 - II. Largo"
PERFORMER "Itzhak Perlman, Israel Philharmonic Orchestra (1982, 1983)"
FLAGS DCP
INDEX 00 03:57:72
FILE "20. Itzhak Perlman - Track20.wav" WAVE
INDEX 01 00:00:00
TRACK 21 AUDIO
TITLE "Violin Concerto in A, RV 347 - III. Allegro"
PERFORMER "Itzhak Perlman, Israel Philharmonic Orchestra (1982, 1983)"
FLAGS DCP
INDEX 00 02:43:62
FILE "21. Itzhak Perlman - Track21.wav" WAVE
INDEX 01 00:00:00
REM GENRE Classical
REM DATE 2003
REM COMMENT "ExactAudioCopy v0.99pb5"
PERFORMER "Itzhak Perlman, London Philharmonic Orchestra, Israel Philharmonic Orchestra"
TITLE "Antonio Vivaldi - The Four Seasons, Violin Concertos RV 199, RV 356, RV 347"
FILE "01. Itzhak Perlman - Track01.flac" WAVE
TRACK 01 AUDIO
TITLE "Concerto No.1 in E, RV 269 'Spring' - I. Allegro"
PERFORMER "Itzhak Perlman, London Philharmonic Orchestra (1976)"
INDEX 01 00:00:00
FILE "02. Itzhak Perlman - Track02.flac" WAVE
TRACK 02 AUDIO
TITLE "Concerto No.1 in E, RV 269 'Spring' - II. Largo"
PERFORMER "Itzhak Perlman, London Philharmonic Orchestra (1976)"
INDEX 01 00:00:00
FILE "03. Itzhak Perlman - Track03.flac" WAVE
TRACK 03 AUDIO
TITLE "Concerto No.1 in E, RV 269 'Spring' - III. Allegro"
PERFORMER "Itzhak Perlman, London Philharmonic Orchestra (1976)"
INDEX 01 00:00:00
FILE "04. Itzhak Perlman - Track04.flac" WAVE
TRACK 04 AUDIO
TITLE "Concerto No.2 in G, RV 315 'Summer' - I. Allegro Non Molto"
PERFORMER "Itzhak Perlman, London Philharmonic Orchestra (1976)"
INDEX 01 00:00:00
FILE "05. Itzhak Perlman - Track05.flac" WAVE
TRACK 05 AUDIO
TITLE "Concerto No.2 in G, RV 315 'Summer' - II. Adagio"
PERFORMER "Itzhak Perlman, London Philharmonic Orchestra (1976)"
INDEX 01 00:00:00
FILE "06. Itzhak Perlman - Track06.flac" WAVE
TRACK 06 AUDIO
TITLE "Concerto No.2 in G, RV 315 'Summer' - III. Presto"
PERFORMER "Itzhak Perlman, London Philharmonic Orchestra (1976)"
INDEX 01 00:00:00
FILE "07. Itzhak Perlman - Track07.flac" WAVE
TRACK 07 AUDIO
TITLE "Concerto No.3 in F, RV 293 'Autumn' - I. Allegro"
PERFORMER "Itzhak Perlman, London Philharmonic Orchestra (1976)"
INDEX 01 00:00:00
FILE "08. Itzhak Perlman - Track08.flac" WAVE
TRACK 08 AUDIO
TITLE "Concerto No.3 in F, RV 293 'Autumn' - II. Adagio Molto"
PERFORMER "Itzhak Perlman, London Philharmonic Orchestra (1976)"
INDEX 01 00:00:00
FILE "09. Itzhak Perlman - Track09.flac" WAVE
TRACK 09 AUDIO
TITLE "Concerto No.3 in F, RV 293 'Autumn' - III. Allegro"
PERFORMER "Itzhak Perlman, London Philharmonic Orchestra (1976)"
INDEX 01 00:00:00
FILE "10. Itzhak Perlman - Track10.flac" WAVE
TRACK 10 AUDIO
TITLE "Concerto No.4 in F, RV 297 'Winter' - I. Allegro Non Molto"
PERFORMER "Itzhak Perlman, London Philharmonic Orchestra (1976)"
INDEX 01 00:00:00
FILE "11. Itzhak Perlman - Track11.flac" WAVE
TRACK 11 AUDIO
TITLE "Concerto No.4 in F, RV 297 'Winter' - II. Largo"
PERFORMER "Itzhak Perlman, London Philharmonic Orchestra (1976)"
INDEX 01 00:00:00
FILE "12. Itzhak Perlman - Track12.flac" WAVE
TRACK 12 AUDIO
TITLE "Concerto No.4 in F, RV 297 'Winter' - III. Allegro"
PERFORMER "Itzhak Perlman, London Philharmonic Orchestra (1976)"
INDEX 01 00:00:00
FILE "13. Itzhak Perlman - Track13.flac" WAVE
TRACK 13 AUDIO
TITLE "Violin Concerto in C, RV 199 'Il Sospetto' - I. Allegro"
PERFORMER "Itzhak Perlman, Israel Philharmonic Orchestra (1982, 1983)"
INDEX 01 00:00:00
FILE "14. Itzhak Perlman - Track14.flac" WAVE
TRACK 14 AUDIO
TITLE "Violin Concerto in C, RV 199 'Il Sospetto' - II. Andante"
PERFORMER "Itzhak Perlman, Israel Philharmonic Orchestra (1982, 1983)"
INDEX 01 00:00:00
FILE "15. Itzhak Perlman - Track15.flac" WAVE
TRACK 15 AUDIO
TITLE "Violin Concerto in C, RV 199 'Il Sospetto' - III. Allegro"
PERFORMER "Itzhak Perlman, Israel Philharmonic Orchestra (1982, 1983)"
INDEX 01 00:00:00
FILE "16. Itzhak Perlman - Track16.flac" WAVE
TRACK 16 AUDIO
TITLE "Violin Concerto in A, RV 356 - I. Allegro"
PERFORMER "Itzhak Perlman, Israel Philharmonic Orchestra (1982, 1983)"
INDEX 01 00:00:00
FILE "17. Itzhak Perlman - Track17.flac" WAVE
TRACK 17 AUDIO
TITLE "Violin Concerto in A, RV 356 - II. Largo"
PERFORMER "Itzhak Perlman, Israel Philharmonic Orchestra (1982, 1983)"
INDEX 01 00:00:00
FILE "18. Itzhak Perlman - Track18.flac" WAVE
TRACK 18 AUDIO
TITLE "Violin Concerto in A, RV 356 - III. Presto"
PERFORMER "Itzhak Perlman, Israel Philharmonic Orchestra (1982, 1983)"
INDEX 01 00:00:00
FILE "19. Itzhak Perlman - Track19.flac" WAVE
TRACK 19 AUDIO
TITLE "Violin Concerto in A, RV 347 - I. Allegro"
PERFORMER "Itzhak Perlman, Israel Philharmonic Orchestra (1982, 1983)"
INDEX 01 00:00:00
FILE "20. Itzhak Perlman - Track20.flac" WAVE
TRACK 20 AUDIO
TITLE "Violin Concerto in A, RV 347 - II. Largo"
PERFORMER "Itzhak Perlman, Israel Philharmonic Orchestra (1982, 1983)"
INDEX 01 00:00:00
FILE "21. Itzhak Perlman - Track21.flac" WAVE
TRACK 21 AUDIO
TITLE "Violin Concerto in A, RV 347 - III. Allegro"
PERFORMER "Itzhak Perlman, Israel Philharmonic Orchestra (1982, 1983)"
INDEX 01 00:00:00
 

singer


post 21-Фев-2011 00:08

 

watcher

Спасибо!
 
Показать сообщения:    
Ответить на тему

Текущее время: 04-Дек 14:11

Часовой пояс: GMT + 3



Вы не можете начинать темы
Вы не можете отвечать на сообщения
Вы не можете редактировать свои сообщения
Вы не можете удалять свои сообщения
Вы не можете голосовать в опросах
Вы не можете прикреплять файлы к сообщениям
Вы не можете скачивать файлы



В начало страницы  •