Loading...
Error
Регистрация  · 
Имя: Пароль:    
 ·  Забыли пароль?
Правила пользования ресурсом

Сегодня идет свободное скачивание без начисления скачанного

(Classical / Orchesral) J. S. Bach - Brandenburgische Konzerte №1-6 - Neues Bachisches Collegium Musicum Leipzig, M. Pommer - 1986, FLAC (image+.cue), lossless

Ответить на тему
 
Автор Сообщение

singer


post 23-Янв-2011 17:34

 

Johann Sebastian Bach
Brandenburgische Concerte № 1 - 6

Жанр: Classical / Orchesral
Год выпуска диска: 1986
Аудио кодек: FLAC
Тип рипа: image+.cue
Битрейт аудио: lossless
Продолжительность: 76.03+71.00
Трэклист:
CD1
Концерт №1 фа мажор BWV 1046
1. --- [4.13]
2. Adagio [4.02]
3. Allegro [4.28]
4. Menuett - Trio - Polonaise - Trio [7.44]
Концерт №2 фа мажор BWV 1047
5. --- [5.10]
6. Andante [3.37]
7. Allegro assai [2.43]
Концерт №3 соль мажор
8. --- [6.10]
9. Adagio [1.08]
10. Allegro [5.13]
Симфония фа мажор BWV 1046a
11. --- [3.58]
12. Adagio, sempre piano [3.50]
13. Menuett - Trio a 2 Hautbois et Basson - Trio pur les Cors de chasse [5.59]
Концерт №2 фа мажор BWV 1047a
14. --- [5.07]
15. Andante [3.34]
16. --- [2.48]
17. Симфония соль мажор BWV 174/1 из кантаты "Ich liebe den Hochsten von ganzem Gemute" [6.10]
CD2
Концерт №4 соль мажор BWV 1049
1. Allegro [6.57]
2. Andante [3.08]
3. Presto [5.01]
Концерт №5 ре мажор BWV 1050
4. Allegro [10.08]
5. Affettuoso [5.07]
6. Allegro [5.15]
Концерт №6 си-бемоль мажор BWV 1051
7. --- [6.35]
8. Adagio ma non tanto [4.12]
9. Allegro [6.10]
Концерт №5 ре мажор BWV 1050a
10. Allegro [8.06]
11. Adagio [5.13]
12. Allegro [5.03]
Исполнители:
Neues Bachisches Collegium Musicum Leipzig, M. Pommer
Отчёты EAC:
Exact Audio Copy V0.99 prebeta 5 from 4. May 2009
Отчёт EAC об извлечении, выполненном 7. июня 2010, 19:20
Neues Bachisches Collegium Musicum Leipzig - M.Pommer / Brandenburgische Konzerte 1-3 (CD1)
Дисковод: TSSTcorpDVD-ROM SH-D162C Adapter: 0 ID: 0
Режим чтения : Достоверность
Использование точного потока : Да
Отключение кэша аудио : Да
Использование указателей C2 : Нет
Коррекция смещения при чтении : 6
Способность читать области Lead-in и Lead-out : Нет
Заполнение пропущенных сэмплов тишиной : Да
Удаление блоков с тишиной в начале и конце : Нет
При вычислениях CRC использовались нулевые сэмплы : Да
Интерфейс : Встроенный Win32-интерфейс для Win NT/2000
Выходной формат : Пользовательский кодировщик
Выбранный битрейт : 768 kBit/s
Качество : Высокий
Добавление ID3-тэга : Нет
Утилита сжатия : C:\Program Files\Exact Audio Copy\FLAC\FLAC.EXE
Дополнительные параметры : -T "DATE=%y" -T "GENRE=%m" -8 -V %s
TOC извлечённого CD
Трек | Старт | Длительность | Начальный сектор | Конечный сектор
---------------------------------------------------------------------
1 | 0:01.27 | 4:13.08 | 102 | 19084
2 | 4:14.35 | 4:02.60 | 19085 | 37294
3 | 8:17.20 | 4:28.52 | 37295 | 57446
4 | 12:45.72 | 7:44.70 | 57447 | 92316
5 | 20:30.67 | 5:10.00 | 92317 | 115566
6 | 25:40.67 | 3:37.05 | 115567 | 131846
7 | 29:17.72 | 2:43.15 | 131847 | 144086
8 | 32:01.12 | 6:10.63 | 144087 | 171899
9 | 38:12.00 | 1:08.27 | 171900 | 177026
10 | 39:20.27 | 5:13.15 | 177027 | 200516
11 | 44:33.42 | 3:58.00 | 200517 | 218366
12 | 48:31.42 | 3:50.38 | 218367 | 235654
13 | 52:22.05 | 5:59.60 | 235655 | 262639
14 | 58:21.65 | 5:07.50 | 262640 | 285714
15 | 63:29.40 | 3:34.02 | 285715 | 301766
16 | 67:03.42 | 2:48.58 | 301767 | 314424
17 | 69:52.25 | 6:10.50 | 314425 | 342224
Характеристики диапазона извлечения и сообщения об ошибках
Выбранный диапазон
Имя файла D:\РАЗДАЧА\Раздачи на RuTracker\Neues Bachisches Collegium Musicum Leipzig - M.Pommer - Brandenburgische Konzerte 1-3 (CD1)\Neues Bachisches Collegium Musicum Leipzig - M.Pommer - Brandenburgische Konzerte 1-3 (CD1).wav
Пиковый уровень 100.0 %
Качество диапазона 100.0 %
CRC теста F3B4F9FC
CRC копии F3B4F9FC
Копирование... OK
Ошибок не произошло
AccurateRip: сводка
Трек 1 точное извлечение (доверие 1) [EF627D3C]
Трек 2 точное извлечение (доверие 1) [711508B2]
Трек 3 точное извлечение (доверие 1) [40E97CEF]
Трек 4 точное извлечение (доверие 1) [8909AF71]
Трек 5 точное извлечение (доверие 1) [F7978519]
Трек 6 точное извлечение (доверие 1) [A02DF11C]
Трек 7 точное извлечение (доверие 1) [E0C1FDBE]
Трек 8 точное извлечение (доверие 1) [51DA187B]
Трек 9 точное извлечение (доверие 1) [E4B32FB5]
Трек 10 точное извлечение (доверие 1) [49075384]
Трек 11 точное извлечение (доверие 1) [77F7AB4F]
Трек 12 точное извлечение (доверие 1) [E45BA6C8]
Трек 13 точное извлечение (доверие 1) [73F7AD39]
Трек 14 точное извлечение (доверие 1) [835B1F7A]
Трек 15 точное извлечение (доверие 1) [F9FB8D60]
Трек 16 точное извлечение (доверие 1) [0DEB6043]
Трек 17 точное извлечение (доверие 1) [0476353A]
Все треки извлечены точно
Конец отчёта
Exact Audio Copy V0.99 prebeta 5 from 4. May 2009
Отчёт EAC об извлечении, выполненном 7. июня 2010, 19:48
Neues Bachisches Collegium Musicum Leipzig - M.Pommer / Brandenburgische Konzerte 4-6 (CD2)
Дисковод: TSSTcorpDVD-ROM SH-D162C Adapter: 0 ID: 0
Режим чтения : Достоверность
Использование точного потока : Да
Отключение кэша аудио : Да
Использование указателей C2 : Нет
Коррекция смещения при чтении : 6
Способность читать области Lead-in и Lead-out : Нет
Заполнение пропущенных сэмплов тишиной : Да
Удаление блоков с тишиной в начале и конце : Нет
При вычислениях CRC использовались нулевые сэмплы : Да
Интерфейс : Встроенный Win32-интерфейс для Win NT/2000
Выходной формат : Пользовательский кодировщик
Выбранный битрейт : 768 kBit/s
Качество : Высокий
Добавление ID3-тэга : Нет
Утилита сжатия : C:\Program Files\Exact Audio Copy\FLAC\FLAC.EXE
Дополнительные параметры : -T "DATE=%y" -T "GENRE=%m" -8 -V %s
TOC извлечённого CD
Трек | Старт | Длительность | Начальный сектор | Конечный сектор
---------------------------------------------------------------------
1 | 0:00.00 | 6:57.55 | 0 | 31329
2 | 6:57.55 | 3:08.07 | 31330 | 45436
3 | 10:05.62 | 5:01.12 | 45437 | 68023
4 | 15:06.74 | 10:08.59 | 68024 | 113682
5 | 25:15.58 | 5:07.06 | 113683 | 136713
6 | 30:22.64 | 5:15.06 | 136714 | 160344
7 | 35:37.70 | 6:35.63 | 160345 | 190032
8 | 42:13.58 | 4:12.09 | 190033 | 208941
9 | 46:25.67 | 6:10.50 | 208942 | 236741
10 | 52:36.42 | 8:06.48 | 236742 | 273239
11 | 60:43.15 | 5:13.02 | 273240 | 296716
12 | 65:56.17 | 5:03.58 | 296717 | 319499
Характеристики диапазона извлечения и сообщения об ошибках
Выбранный диапазон
Имя файла D:\РАЗДАЧА\Раздачи на RuTracker\Neues Bachisches Collegium Musicum Leipzig - M.Pommer - Brandenburgische Konzerte 1-3 (CD1)\Neues Bachisches Collegium Musicum Leipzig - M.Pommer - Brandenburgische Konzerte 4-6 (CD2).wav
Пиковый уровень 70.0 %
Качество диапазона 100.0 %
CRC теста 5E6FAD3A
CRC копии 5E6FAD3A
Копирование... OK
Ошибок не произошло
AccurateRip: сводка
Трек 1 точное извлечение (доверие 1) [4A7A9A89]
Трек 2 точное извлечение (доверие 1) [24FECEFE]
Трек 3 точное извлечение (доверие 1) [5A1B493A]
Трек 4 точное извлечение (доверие 1) [1D9F597B]
Трек 5 точное извлечение (доверие 1) [3063BE13]
Трек 6 точное извлечение (доверие 1) [7BE6B5B0]
Трек 7 точное извлечение (доверие 1) [98EDB08B]
Трек 8 точное извлечение (доверие 1) [7332EAD2]
Трек 9 точное извлечение (доверие 1) [B7CE31B6]
Трек 10 точное извлечение (доверие 1) [AE01149C]
Трек 11 точное извлечение (доверие 1) [DAD63285]
Трек 12 точное извлечение (доверие 1) [E294537E]
Все треки извлечены точно
Конец отчёта
Доп. информация: Запись Бранденбургских Концертов, осуществлённая доктором музыковедения, профессором Максом Поммером
и Баховской Музыкальной Коллегией в Лейпциге, была в 1987 году удостоена премии Немецкой музыкальной критики.
Это действительно выдающаяся по своим музыкальным достоинствам, верному воспроизведению баховского стиля, и, что немаловажно,
по техническому совершенству запись. Она включает и малоизвестные авторские варианты отдельных концертов или их частей, в
частности - "симфонию" из оратории BWV 174, и раннюю версию Пятого концерта из архива Иоганна Христофа Альтниколя, зятя и ученика И. С. Баха.
Download

Скачать (бесплатно и на максимальной скорости)!

Как скачивать  ·   Что такое torrent (торрент)  ·   Рейтинг и ограничения

Сайт не распространяет и не хранит электронные версии произведений, а лишь предоставляет доступ к создаваемому пользователями каталогу ссылок на торрент-файлы, которые содержат только списки хеш-сумм


 
Показать сообщения:    
Ответить на тему

Текущее время: 16-Май 19:01

Часовой пояс: GMT + 3



Вы не можете начинать темы
Вы не можете отвечать на сообщения
Вы не можете редактировать свои сообщения
Вы не можете удалять свои сообщения
Вы не можете голосовать в опросах
Вы не можете прикреплять файлы к сообщениям
Вы не можете скачивать файлы



В начало страницы  •