Loading...
Error
Регистрация  · 
Имя: Пароль:    
 ·  Забыли пароль?
Правила пользования ресурсом

Сегодня идет свободное скачивание без начисления скачанного

(Concerto & Symphony) Рахманинов - Элегическое трио (переложение для фортепиано с оркестром), Вариации на тему Корелли (переложение для оркестра), Вокализ - A. Kogosowski - Detroit Symphony Orchestra - N. Jarvi - 1994, APE (image + .cue), lossless

Ответить на тему
 
Автор Сообщение

singer


post 14-Дек-2010 22:20

 

Сергей Рахманинов

Элегическое трио, d-moll, op. 9b
(переложение для фортепиано с орестром A. Kogosowski)


Вариации на тему Корелли, op.42
(переложение для оркестра С. Dumbraveanu)


Вокализ
(переложение для оркестра С. Рахманинова)

Страна: England
Жанр: Concerto & Symphony
Год выпуска: 1994
Формат: APE (image + .cue)
Битрейт аудио: lossless
Продолжительность: 68.44 min.
Трэклист:
Сергей Рахманинов

Элегический концерт для фортепиано с оркестром, op.9b
(переложение A. Kogosowski Элегического трио "Памяти великого художника", соч. 9)
01. I. Moderato - Allegro vivace
02. II. Quasi variazione
03. III. Allegro risoluto

Вариации на тему Корелли, Op.42
(переложение для оркестра С. Dumbraveanu)
04. Theme. Andante
05. Variation I
06. Variation II
07. Variation III
08. Variation IV
09. Variation V
10. Variation VI
11. Variation VII
12. Variation VIII
13. Variation IX
14. Variation X
15. Variation XI
16. Variation XII
17. Variation XIII
18. Intermezzo. A tempo rubato
19. Variation XIV
20. Variation XV
21. Variation XVI
22. Variation XVII
23. Variation XVIII
24. Variation XIX
25. Variation XX
26. Coda. Andante

Вокализ, Op.34
(переложение для оркестра С. Рахманинова)
27. Lentamente
Исполнители:
Alan Kogosowski, piano
Detroit Symphony Orchestra
Neeme Jarvi
, conductor
Запись 1993
Exact Audio Copy V1.0 beta 1 from 15. November 2010

EAC extraction logfile from 13. December 2010, 2:53

Sergey Rachmaninov / Transcriptions for Orchestra

Used drive : HL-DT-STDVDRAM GH22NS50 Adapter: 0 ID: 0

Read mode : Secure
Utilize accurate stream : Yes
Defeat audio cache : Yes
Make use of C2 pointers : No

Read offset correction : 667
Overread into Lead-In and Lead-Out : No
Fill up missing offset samples with silence : Yes
Delete leading and trailing silent blocks : No
Null samples used in CRC calculations : Yes
Used interface : Native Win32 interface for Win NT & 2000

Used output format : Internal WAV Routines
Sample format : 44.100 Hz; 16 Bit; Stereo

TOC of the extracted CD

Track | Start | Length | Start sector | End sector
---------------------------------------------------------
1 | 0:00.00 | 19:55.25 | 0 | 89649
2 | 19:55.25 | 15:36.10 | 89650 | 159859
3 | 35:31.35 | 8:04.65 | 159860 | 196224
4 | 43:36.25 | 0:55.10 | 196225 | 200359
5 | 44:31.35 | 0:57.47 | 200360 | 204681
6 | 45:29.07 | 0:46.33 | 204682 | 208164
7 | 46:15.40 | 0:37.60 | 208165 | 210999
8 | 46:53.25 | 0:52.35 | 211000 | 214934
9 | 47:45.60 | 0:23.22 | 214935 | 216681
10 | 48:09.07 | 0:23.63 | 216682 | 218469
11 | 48:32.70 | 0:32.30 | 218470 | 220899
12 | 49:05.25 | 1:24.42 | 220900 | 227241
13 | 50:29.67 | 1:25.28 | 227242 | 233644
14 | 51:55.20 | 0:32.30 | 233645 | 236074
15 | 52:27.50 | 0:18.00 | 236075 | 237424
16 | 52:45.50 | 0:33.40 | 237425 | 239939
17 | 53:19.15 | 0:34.35 | 239940 | 242524
18 | 53:53.50 | 1:45.20 | 242525 | 250419
19 | 55:38.70 | 1:22.60 | 250420 | 256629
20 | 57:01.55 | 1:52.57 | 256630 | 265086
21 | 58:54.37 | 0:29.30 | 265087 | 267291
22 | 59:23.67 | 0:53.50 | 267292 | 271316
23 | 60:17.42 | 0:30.20 | 271317 | 273586
24 | 60:47.62 | 0:28.70 | 273587 | 275756
25 | 61:16.57 | 0:53.33 | 275757 | 279764
26 | 62:10.15 | 2:02.07 | 279765 | 288921
27 | 64:12.22 | 4:32.33 | 288922 | 309354

Range status and errors

Selected range

Filename D:\- DL\Sergey Rachmaninov - Transcriptions for Orchestra\Sergey Rachmaninov - Transcriptions for Orchestra.wav

Peak level 93.3 %
Extraction speed 2.7 X
Range quality 100.0 %
Copy CRC 450A27DE
Copy OK

No errors occurred

End of status report
Download

Скачать (бесплатно и на максимальной скорости)!

Как скачивать  ·   Что такое torrent (торрент)  ·   Рейтинг и ограничения

Сайт не распространяет и не хранит электронные версии произведений, а лишь предоставляет доступ к создаваемому пользователями каталогу ссылок на торрент-файлы, которые содержат только списки хеш-сумм


 
Показать сообщения:    
Ответить на тему

Текущее время: 19-Сен 01:24

Часовой пояс: GMT + 3



Вы не можете начинать темы
Вы не можете отвечать на сообщения
Вы не можете редактировать свои сообщения
Вы не можете удалять свои сообщения
Вы не можете голосовать в опросах
Вы не можете прикреплять файлы к сообщениям
Вы не можете скачивать файлы



В начало страницы  •