Loading...
Error
Регистрация  · 
Имя: Пароль:    
 ·  Забыли пароль?
Правила пользования ресурсом

До Нового года осталось:
Обладатель VIP статуса на 24 часа: nikola120
стань следующим читай правила
Сегодня идет свободное скачивание без начисления скачанного

(Pop, Disco) Arabesque - The Best Of Arabesque..., 5CD Box - 1996, FLAC (image + .cue), lossless

Ответить на тему
 
Автор Сообщение

korobok


post 05-Дек-2010 11:37

 

Arabesque - The Best Of Arabesque..., 5CD Box


Страна: Germany
Жанр: Pop, Disco
Год выпуска: 1996
Label: Victor Entertainment Japan
Catalog#: VICG-58196 - 58200
Format: 5 x CD, Album, Box
Формат: FLAC (image + .cue)
Битрейт аудио: lossless
Продолжительность: 04:27:21
01. Hello Mr. Monkey (3:28)
02. Someone Is Waiting For You (4:03)
03. In The Heat Of A Disco Night (3:15)
04. Lucifer's Lover (3:32)
05. Make Love Whenever You Can (3:45)
06. Fly High Little Butterfly (3:26)
07. The Man With The Gun (2:57)
08. Once In A Blue Moon (3:18)
09. High Life (3:05)
10. In For A Penny, In For A Pound (2:59)
11. Buggy Boy (2:56)
12. Six Times A Day (3:10)
13. Roller Star (3:39)
14. Jungle Jangle Joe (3:09)
15. Love Is Just A Game (4:25)
Exact Audio Copy V0.99 prebeta 5 from 4. May 2009

EAC extraction logfile from 29. November 2010, 21:08

Arabesque / The Best Of Arabesque Vol.1: Hello Mr. Monkey

Used drive : ASUS DRW-24B3ST Adapter: 1 ID: 0

Read mode : Secure
Utilize accurate stream : Yes
Defeat audio cache : Yes
Make use of C2 pointers : No

Read offset correction : 6
Overread into Lead-In and Lead-Out : No
Fill up missing offset samples with silence : Yes
Delete leading and trailing silent blocks : No
Null samples used in CRC calculations : Yes
Used interface : Native Win32 interface for Win NT & 2000

Used output format : User Defined Encoder
Selected bitrate : 1024 kBit/s
Quality : High
Add ID3 tag : No
Command line compressor : C:\Program Files\Exact Audio Copy\Flac\flac.exe
Additional command line options : -5 -V -T "ARTIST=%a" -T "ALBUM=%g" -T "DATE=%y" -T "GENRE=%m" -T "COMMENT=released by DaRReL™" %s

TOC of the extracted CD

Track | Start | Length | Start sector | End sector
---------------------------------------------------------
1 | 0:00.37 | 3:27.70 | 37 | 15631
2 | 3:28.32 | 4:03.30 | 15632 | 33886
3 | 7:31.62 | 3:14.48 | 33887 | 48484
4 | 10:46.35 | 3:31.50 | 48485 | 64359
5 | 14:18.10 | 3:44.42 | 64360 | 81201
6 | 18:02.52 | 3:25.48 | 81202 | 96624
7 | 21:28.25 | 2:57.25 | 96625 | 109924
8 | 24:25.50 | 3:17.50 | 109925 | 124749
9 | 27:43.25 | 3:04.72 | 124750 | 138621
10 | 30:48.22 | 2:58.48 | 138622 | 152019
11 | 33:46.70 | 2:55.40 | 152020 | 165184
12 | 36:42.35 | 3:09.60 | 165185 | 179419
13 | 39:52.20 | 3:39.05 | 179420 | 195849
14 | 43:31.25 | 3:09.15 | 195850 | 210039
15 | 46:40.40 | 4:24.52 | 210040 | 229891

Range status and errors

Selected range

Filename E:\Audio in lossless\$ ARABESQUE $\Arabesque - Japan Press (1996, Box 5CD)\The Best Of Arabesque Vol.1 -Hello Mr. Monkey (Japan, VICG-58196)\Arabesque - The Best Of Arabesque Vol.1 Hello Mr. Monkey.wav

Peak level 100.0 %
Range quality 100.0 %
Test CRC 0D5F26CF
Copy CRC 0D5F26CF
Copy OK

No errors occurred

AccurateRip summary
Track 1 accurately ripped (confidence 1) [7BD83941]
Track 2 accurately ripped (confidence 1) [96301C61]
Track 3 accurately ripped (confidence 1) [91AEDF2C]
Track 4 accurately ripped (confidence 1) [4B33CFCF]
Track 5 accurately ripped (confidence 1) [C6E73004]
Track 6 accurately ripped (confidence 1) [38E8FD16]
Track 7 accurately ripped (confidence 1) [A563BB8A]
Track 8 accurately ripped (confidence 1) [4FBCFB57]
Track 9 accurately ripped (confidence 1) [32204340]
Track 10 accurately ripped (confidence 1) [A35E6E5D]
Track 11 accurately ripped (confidence 1) [B4333E41]
Track 12 accurately ripped (confidence 1) [9B58819A]
Track 13 accurately ripped (confidence 1) [150C6AC6]
Track 14 accurately ripped (confidence 1) [2D0ED4B7]
Track 15 accurately ripped (confidence 1) [897FE5EC]
All tracks accurately ripped

End of status report
01. Friday Night (4:15)
02. Rock Me After Midnight (3:48)
03. Hell Driver (4:55)
04. Parties In A Penthouse (3:18)
05. Caballero (3:59)
06. Hit The Jackpot (3:15)
07. Young Fingers Get Burnt (3:07)
08. Catch Me Tiger (4:52)
09. Bye Bye My Love (3:28)
10. Tall Story Teller (3:08)
11. Give It Up (3:54)
12. City Cats (3:03)
13. Marigot Bay (3:49)
14. Indio Boy (3:57)
15. It's So Hard To Leave You (4:02)
Exact Audio Copy V0.99 prebeta 5 from 4. May 2009

EAC extraction logfile from 29. November 2010, 22:03

Arabesque / The Best Of Arabesque Vol.2: Friday Night

Used drive : ASUS DRW-24B3ST Adapter: 1 ID: 0

Read mode : Secure
Utilize accurate stream : Yes
Defeat audio cache : Yes
Make use of C2 pointers : No

Read offset correction : 6
Overread into Lead-In and Lead-Out : No
Fill up missing offset samples with silence : Yes
Delete leading and trailing silent blocks : No
Null samples used in CRC calculations : Yes
Used interface : Native Win32 interface for Win NT & 2000

Used output format : User Defined Encoder
Selected bitrate : 1024 kBit/s
Quality : High
Add ID3 tag : No
Command line compressor : C:\Program Files\Exact Audio Copy\Flac\flac.exe
Additional command line options : -5 -V -T "ARTIST=%a" -T "ALBUM=%g" -T "DATE=%y" -T "GENRE=%m" -T "COMMENT=released by DaRReL™" %s

TOC of the extracted CD

Track | Start | Length | Start sector | End sector
---------------------------------------------------------
1 | 0:00.37 | 4:15.23 | 37 | 19184
2 | 4:15.60 | 3:47.67 | 19185 | 36276
3 | 8:03.52 | 4:54.65 | 36277 | 58391
4 | 12:58.42 | 3:17.45 | 58392 | 73211
5 | 16:16.12 | 3:58.70 | 73212 | 91131
6 | 20:15.07 | 3:14.40 | 91132 | 105721
7 | 23:29.47 | 3:06.73 | 105722 | 119744
8 | 26:36.45 | 4:52.32 | 119745 | 141676
9 | 31:29.02 | 3:27.70 | 141677 | 157271
10 | 34:56.72 | 3:08.10 | 157272 | 171381
11 | 38:05.07 | 3:54.20 | 171382 | 188951
12 | 41:59.27 | 3:03.10 | 188952 | 202686
13 | 45:02.37 | 3:49.23 | 202687 | 219884
14 | 48:51.60 | 3:57.27 | 219885 | 237686
15 | 52:49.12 | 4:01.55 | 237687 | 255816

Range status and errors

Selected range

Filename E:\Audio in lossless\$ ARABESQUE $\Arabesque - Japan Press (1996, Box 5CD)\The Best Of Arabesque Vol.2 -Friday Night (Japan, VICG-58197)\Arabesque - The Best Of Arabesque Vol.2 Friday Night.wav

Peak level 100.0 %
Range quality 100.0 %
Test CRC 58495AE9
Copy CRC 58495AE9
Copy OK

No errors occurred

AccurateRip summary
Track 1 accurately ripped (confidence 1) [EABF63CF]
Track 2 accurately ripped (confidence 1) [36E96547]
Track 3 accurately ripped (confidence 1) [0B01317C]
Track 4 accurately ripped (confidence 1) [C6810FAF]
Track 5 accurately ripped (confidence 1) [DCE78684]
Track 6 accurately ripped (confidence 1) [062339FF]
Track 7 accurately ripped (confidence 1) [CC492EEA]
Track 8 accurately ripped (confidence 1) [0B01317C]
Track 9 accurately ripped (confidence 1) [6CA1FEE8]
Track 10 accurately ripped (confidence 1) [6E88E291]
Track 11 accurately ripped (confidence 1) [062339FF]
Track 12 accurately ripped (confidence 1) [5B8041E5]
Track 13 accurately ripped (confidence 1) [C3609076]
Track 14 accurately ripped (confidence 1) [C6810FAF]
Track 15 accurately ripped (confidence 1) [DCE78684]
All tracks accurately ripped

End of status report
01. Peppermint Jack (3:06)
02. Like A Shot In The Dark (3:43)
03. Dancing In The Fire Of Love (3:28)
04. Touch And Go (3:34)
05. Hey What A Magic Night (3:12)
06. Heart On Fire (3:36)
07. Keep The Wolf From The Door (4:19)
08. Hi Hi Highway (4:04)
09. Why No Reply? (3:31)
10. Look Alive (3:41)
11. Fools Paradise (3:23)
12. I Don't Wanna Have Breakfast With You (3:48)
13. Black Out (3:24)
14. The Only Night Was A Lonely Night (3:19)
15. Time To Say 'Good Bye' (3:37)
Exact Audio Copy V0.99 prebeta 5 from 4. May 2009

EAC extraction logfile from 29. November 2010, 22:53

Arabesque / The Best Of Arabesque Vol.3: Peppermint Jack

Used drive : ASUS DRW-24B3ST Adapter: 1 ID: 0

Read mode : Secure
Utilize accurate stream : Yes
Defeat audio cache : Yes
Make use of C2 pointers : No

Read offset correction : 6
Overread into Lead-In and Lead-Out : No
Fill up missing offset samples with silence : Yes
Delete leading and trailing silent blocks : No
Null samples used in CRC calculations : Yes
Used interface : Native Win32 interface for Win NT & 2000

Used output format : User Defined Encoder
Selected bitrate : 1024 kBit/s
Quality : High
Add ID3 tag : No
Command line compressor : C:\Program Files\Exact Audio Copy\Flac\flac.exe
Additional command line options : -5 -V -T "ARTIST=%a" -T "ALBUM=%g" -T "DATE=%y" -T "GENRE=%m" -T "COMMENT=released by DaRReL™" %s

TOC of the extracted CD

Track | Start | Length | Start sector | End sector
---------------------------------------------------------
1 | 0:00.37 | 3:06.23 | 37 | 14009
2 | 3:06.60 | 3:43.27 | 14010 | 30761
3 | 6:50.12 | 3:28.33 | 30762 | 46394
4 | 10:18.45 | 3:34.07 | 46395 | 62451
5 | 13:52.52 | 3:12.23 | 62452 | 76874
6 | 17:05.00 | 3:35.55 | 76875 | 93054
7 | 20:40.55 | 4:18.72 | 93055 | 112476
8 | 24:59.52 | 4:03.45 | 112477 | 130746
9 | 29:03.22 | 3:30.58 | 130747 | 146554
10 | 32:34.05 | 3:41.25 | 146555 | 163154
11 | 36:15.30 | 3:23.37 | 163155 | 178416
12 | 39:38.67 | 3:48.18 | 178417 | 195534
13 | 43:27.10 | 3:24.07 | 195535 | 210841
14 | 46:51.17 | 3:19.18 | 210842 | 225784
15 | 50:10.35 | 3:37.07 | 225785 | 242066

Range status and errors

Selected range

Filename E:\Audio in lossless\$ ARABESQUE $\Arabesque - Japan Press (1996, Box 5CD)\The Best Of Arabesque Vol.3 -Peppermint Jack (Japan, VICG-58198)\Arabesque - The Best Of Arabesque Vol.3 Peppermint Jack.wav

Peak level 100.0 %
Range quality 100.0 %
Test CRC B010DB6B
Copy CRC B010DB6B
Copy OK

No errors occurred

AccurateRip summary
Track 1 accurately ripped (confidence 1) [7913284C]
Track 2 accurately ripped (confidence 1) [053F680D]
Track 3 accurately ripped (confidence 1) [5E330B34]
Track 4 accurately ripped (confidence 1) [373E18D4]
Track 5 accurately ripped (confidence 1) [A1DCD804]
Track 6 accurately ripped (confidence 1) [B36EF0D1]
Track 7 accurately ripped (confidence 1) [7DE887F3]
Track 8 accurately ripped (confidence 1) [3634E575]
Track 9 accurately ripped (confidence 1) [DB97EC26]
Track 10 accurately ripped (confidence 1) [927CF000]
Track 11 accurately ripped (confidence 1) [48DABBB4]
Track 12 accurately ripped (confidence 1) [9BD6ADC0]
Track 13 accurately ripped (confidence 1) [F832B8FB]
Track 14 accurately ripped (confidence 1) [B69B7075]
Track 15 accurately ripped (confidence 1) [73DF458D]
All tracks accurately ripped

End of status report
01. Midnight Dancer (3:41)
02. Don't Kiss A Crocodile (3:28)
03. Hey, Catch On (3:20)
04. A Flash In The Pan (3:58)
05. Loser Pays The Piper (3:20)
06. Ladies First (3:24)
07. Moorea (4:47)
08. Dance, Dance, Dance (3:09)
09. Angel Face (3:14)
10. Bye Bye Superman (3:22)
11. For Your Smile (2:54)
12. Sunrise In Your Eyes (3:17)
13. You Better Get A Move On (2:52)
14. Stupid Boys (3:06)
15. Run The Show (3:15)
Exact Audio Copy V0.99 prebeta 5 from 4. May 2009

EAC extraction logfile from 30. November 2010, 0:24

Arabesque / The Best Of Arabesque Vol.4: Midnight Dancer

Used drive : ASUS DRW-24B3ST Adapter: 1 ID: 0

Read mode : Secure
Utilize accurate stream : Yes
Defeat audio cache : Yes
Make use of C2 pointers : No

Read offset correction : 6
Overread into Lead-In and Lead-Out : No
Fill up missing offset samples with silence : Yes
Delete leading and trailing silent blocks : No
Null samples used in CRC calculations : Yes
Used interface : Native Win32 interface for Win NT & 2000

Used output format : User Defined Encoder
Selected bitrate : 1024 kBit/s
Quality : High
Add ID3 tag : No
Command line compressor : C:\Program Files\Exact Audio Copy\Flac\flac.exe
Additional command line options : -5 -V -T "ARTIST=%a" -T "ALBUM=%g" -T "DATE=%y" -T "GENRE=%m" -T "COMMENT=released by DaRReL™" %s

TOC of the extracted CD

Track | Start | Length | Start sector | End sector
---------------------------------------------------------
1 | 0:00.37 | 3:40.43 | 37 | 16579
2 | 3:41.05 | 3:28.17 | 16580 | 32196
3 | 7:09.22 | 3:20.18 | 32197 | 47214
4 | 10:29.40 | 3:57.50 | 47215 | 65039
5 | 14:27.15 | 3:20.32 | 65040 | 80071
6 | 17:47.47 | 3:24.13 | 80072 | 95384
7 | 21:11.60 | 4:47.22 | 95385 | 116931
8 | 25:59.07 | 3:09.08 | 116932 | 131114
9 | 29:08.15 | 3:14.30 | 131115 | 145694
10 | 32:22.45 | 3:22.35 | 145695 | 160879
11 | 35:45.05 | 2:54.02 | 160880 | 173931
12 | 38:39.07 | 3:16.50 | 173932 | 188681
13 | 41:55.57 | 2:52.08 | 188682 | 201589
14 | 44:47.65 | 3:05.62 | 201590 | 215526
15 | 47:53.52 | 3:15.30 | 215527 | 230181

Range status and errors

Selected range

Filename E:\Audio in lossless\$ ARABESQUE $\Arabesque - Japan Press (1996, Box 5CD)\The Best Of Arabesque Vol.4 -Midnight Dancer (Japan, VICG-58199)\Arabesque - The Best Of Arabesque Vol.4 Midnight Dancer.wav

Peak level 100.0 %
Range quality 100.0 %
Test CRC DA58360B
Copy CRC DA58360B
Copy OK

No errors occurred

AccurateRip summary
Track 1 accurately ripped (confidence 1) [992462D8]
Track 2 accurately ripped (confidence 1) [0640A716]
Track 3 accurately ripped (confidence 1) [7B431A96]
Track 4 accurately ripped (confidence 1) [17B879DC]
Track 5 accurately ripped (confidence 1) [C16EADD9]
Track 6 accurately ripped (confidence 1) [0DB0E27C]
Track 7 accurately ripped (confidence 1) [20465AAC]
Track 8 accurately ripped (confidence 1) [CAA6BC1E]
Track 9 accurately ripped (confidence 1) [96FC01C4]
Track 10 accurately ripped (confidence 1) [CA27B8D2]
Track 11 accurately ripped (confidence 1) [3A0D621F]
Track 12 accurately ripped (confidence 1) [B9139393]
Track 13 accurately ripped (confidence 1) [7D4E92D6]
Track 14 accurately ripped (confidence 1) [EE492D0C]
Track 15 accurately ripped (confidence 1) [9CF5B3E6]
All tracks accurately ripped

End of status report
01. Billy's Barbeque (2:48)
02. The Hero Of My Life (3:48)
03. I Stand By You (3:44)
04. The Doctor Likes Music (2:55)
05. Let's Make A Night Of It (3:30)
06. The Rebels Of The Bounty (3:57)
07. Take Me, Don't Break Me (3:16)
08. Rainy Love Affair (3:06)
09. Prison Of Love (2:53)
10. Don't Wait For A Sailor (4:02)
11. Discover Me (3:50)
12. Plastic Heart (3:59)
13. Sunset In New York (3:55)
14. Night In The Harbour (4:31)
15. The End Of The Show (4:15)
Exact Audio Copy V0.99 prebeta 5 from 4. May 2009

EAC extraction logfile from 30. November 2010, 0:54

Arabesque / The Best Of Arabesque Vol.5: Billy's Barbeque

Used drive : ASUS DRW-24B3ST Adapter: 1 ID: 0

Read mode : Secure
Utilize accurate stream : Yes
Defeat audio cache : Yes
Make use of C2 pointers : No

Read offset correction : 6
Overread into Lead-In and Lead-Out : No
Fill up missing offset samples with silence : Yes
Delete leading and trailing silent blocks : No
Null samples used in CRC calculations : Yes
Used interface : Native Win32 interface for Win NT & 2000

Used output format : User Defined Encoder
Selected bitrate : 1024 kBit/s
Quality : High
Add ID3 tag : No
Command line compressor : C:\Program Files\Exact Audio Copy\Flac\flac.exe
Additional command line options : -5 -V -T "ARTIST=%a" -T "ALBUM=%g" -T "DATE=%y" -T "GENRE=%m" -T "COMMENT=released by DaRReL™" %s

TOC of the extracted CD

Track | Start | Length | Start sector | End sector
---------------------------------------------------------
1 | 0:00.37 | 2:48.20 | 37 | 12656
2 | 2:48.57 | 3:47.50 | 12657 | 29731
3 | 6:36.32 | 3:44.33 | 29732 | 46564
4 | 10:20.65 | 2:55.02 | 46565 | 59691
5 | 13:15.67 | 3:30.35 | 59692 | 75476
6 | 16:46.27 | 3:56.73 | 75477 | 93249
7 | 20:43.25 | 3:16.22 | 93250 | 107971
8 | 23:59.47 | 3:05.70 | 107972 | 121916
9 | 27:05.42 | 2:52.70 | 121917 | 134886
10 | 29:58.37 | 4:01.65 | 134887 | 153026
11 | 34:00.27 | 3:49.60 | 153027 | 170261
12 | 37:50.12 | 3:59.20 | 170262 | 188206
13 | 41:49.32 | 3:55.13 | 188207 | 205844
14 | 45:44.45 | 4:30.67 | 205845 | 226161
15 | 50:15.37 | 4:15.05 | 226162 | 245291

Range status and errors

Selected range

Filename E:\Audio in lossless\$ ARABESQUE $\Arabesque - Japan Press (1996, Box 5CD)\The Best Of Arabesque Vol.5 -Billy's Barbeque (Japan, VICG-58200)\Arabesque - The Best Of Arabesque Vol.5 Billy's Barbeque.wav

Peak level 100.0 %
Range quality 100.0 %
Test CRC C8907419
Copy CRC C8907419
Copy OK

No errors occurred

AccurateRip summary
Track 1 accurately ripped (confidence 1) [C6D44873]
Track 2 accurately ripped (confidence 1) [9340E782]
Track 3 accurately ripped (confidence 1) [CF31F030]
Track 4 accurately ripped (confidence 1) [845F69AF]
Track 5 accurately ripped (confidence 1) [D10CE764]
Track 6 accurately ripped (confidence 1) [1D8B2AFE]
Track 7 accurately ripped (confidence 1) [39ED0B7A]
Track 8 accurately ripped (confidence 1) [BD4AE3F4]
Track 9 accurately ripped (confidence 1) [3387C6A9]
Track 10 accurately ripped (confidence 1) [7F5FD25F]
Track 11 accurately ripped (confidence 1) [B1087E6A]
Track 12 accurately ripped (confidence 1) [C6855253]
Track 13 accurately ripped (confidence 1) [070533C3]
Track 14 accurately ripped (confidence 1) [447A53A3]
Track 15 accurately ripped (confidence 1) [EC9DE755]
All tracks accurately ripped

End of status report
FILE: Arabesque - The Best Of Arabesque Vol.1 Hello Mr. Monkey.flac
Size: 365500550 Hash: A9DCF3ACB8E900C609AE940B8F360AA1 Accuracy: -m8
Conclusion: CDDA 100%
Signature: D3590328A91791AC5B91BFA184F264D921EF0DB9

FILE: Arabesque - The Best Of Arabesque Vol.2 Friday Night.flac
Size: 410588558 Hash: 7E367D69E7FFB9E3529880445D596F12 Accuracy: -m8
Conclusion: CDDA 100%
Signature: F98394CC72F1FC32D6993B2D32B49E686E6DD237

FILE: Arabesque - The Best Of Arabesque Vol.3 Peppermint Jack.flac
Size: 386159643 Hash: 9766B264C4FE92F70738348D88DEAB23 Accuracy: -m8
Conclusion: CDDA 100%
Signature: D5FEED98BA146B363FFA71EA7233B53476E56078

FILE: Arabesque - The Best Of Arabesque Vol.4 Midnight Dancer.flac
Size: 377204837 Hash: 1E68832E863C1B279A0772C3DA6E1416 Accuracy: -m8
Conclusion: CDDA 100%
Signature: E505434F5F8F43AEC2900683BB6669056C3AF432

FILE: Arabesque - The Best Of Arabesque Vol.5 Billy's Barbeque.flac
Size: 372413074 Hash: 54E4986431191A9D6833FD5F13BFDED7 Accuracy: -m8
Conclusion: CDDA 100%
Signature: 06D7A90F17FE604C451E4654C5EA3897B7F84D43
Download

Скачать (бесплатно и на максимальной скорости)!

Как скачивать  ·   Что такое torrent (торрент)  ·   Рейтинг и ограничения

Сайт не распространяет и не хранит электронные версии произведений, а лишь предоставляет доступ к создаваемому пользователями каталогу ссылок на торрент-файлы, которые содержат только списки хеш-сумм


 
Показать сообщения:    
Ответить на тему

Текущее время: 02-Мар 05:14

Часовой пояс: GMT + 3



Вы не можете начинать темы
Вы не можете отвечать на сообщения
Вы не можете редактировать свои сообщения
Вы не можете удалять свои сообщения
Вы не можете голосовать в опросах
Вы не можете прикреплять файлы к сообщениям
Вы не можете скачивать файлы