Loading...
Error
Регистрация  · 
Имя: Пароль:    
 ·  Забыли пароль?
Правила пользования ресурсом

До Нового года осталось:
Обладатель VIP статуса на 24 часа: nikola120
стань следующим читай правила
Сегодня идет свободное скачивание без начисления скачанного

(Heavy Metal, Hard Rock, Doom Metal) Ozzy Osbourne - Bark At The Moon (1983) [US 1st Press, ZK 38987] - 1983, WAVPack (image + .cue), lossless

Ответить на тему
 
Автор Сообщение

korobok


post 10-Окт-2010 15:33

 

Ozzy Osbourne - Bark At The Moon (1983) [US 1st Press, ZK 38987]


Страна: Великобритания
Жанр: Heavy Metal, Hard Rock, Doom Metal
Год выпуска: 1983
Label: CBS
Catalog Number: ZK 38987
Формат: WAVPack (image + .cue)
Битрейт аудио: lossless
Продолжительность: 00:38:54

01. Bark At The Moon (4:17)
02. You're No Different (5:02)
03. Now You See It (Now You Don't) (5:06)
04. Rock 'N' Roll Rebel (5:28)
05. Centre Of Eternity (5:25)
06. So Tired (3:59)
07. Slow Down (4:20)
08. Waiting For Darkness (5:16)


Exact Audio Copy V0.99 prebeta 5 from 4. May 2009

EAC extraction logfile from 7. October 2010, 18:15

Ozzy Osbourne / Bark At The Moon [ZK 38987]

Used drive : SONY DVD RW AW-G170A Adapter: 1 ID: 0

Read mode : Secure
Utilize accurate stream : Yes
Defeat audio cache : Yes
Make use of C2 pointers : No

Read offset correction : 48
Overread into Lead-In and Lead-Out : No
Fill up missing offset samples with silence : Yes
Delete leading and trailing silent blocks : No
Null samples used in CRC calculations : Yes
Used interface : Native Win32 interface for Win NT & 2000

Used output format : Internal WAV Routines
Sample format : 44.100 Hz; 16 Bit; Stereo

TOC of the extracted CD

Track | Start | Length | Start sector | End sector
---------------------------------------------------------
1 | 0:00.00 | 4:17.25 | 0 | 19299
2 | 4:17.25 | 5:02.25 | 19300 | 41974
3 | 9:19.50 | 5:06.00 | 41975 | 64924
4 | 14:25.50 | 5:28.37 | 64925 | 89561
5 | 19:54.12 | 5:24.38 | 89562 | 113899
6 | 25:18.50 | 3:59.15 | 113900 | 131839
7 | 29:17.65 | 4:19.55 | 131840 | 151319
8 | 33:37.45 | 5:16.30 | 151320 | 175049

Range status and errors

Selected range

Filename F:\-= lossless work =-\Ozzy Osbourne - Bark At The Moon [ZK 38987].wav

Peak level 93.6 %
Range quality 100.0 %
Test CRC 056B0A0C
Copy CRC 056B0A0C
Copy OK

No errors occurred

AccurateRip summary

Track 1 accurately ripped (confidence 6) [D21F3C76]
Track 2 accurately ripped (confidence 5) [74E192D0]
Track 3 accurately ripped (confidence 5) [40564E71]
Track 4 accurately ripped (confidence 5) [70E2FF93]
Track 5 accurately ripped (confidence 5) [7296B8A0]
Track 6 accurately ripped (confidence 5) [8532A579]
Track 7 accurately ripped (confidence 5) [6485CC13]
Track 8 accurately ripped (confidence 4) [63860735]

All tracks accurately ripped

End of status report
auCDtect: CD records authenticity detector, version 0.8.2
Copyright (c) 2004 Oleg Berngardt. All rights reserved.
Copyright (c) 2004 Alexander Djourik. All rights reserved.
------------------------------------------------------------
Processing file: [Ozzy Osbourne - Bark At The Moon [ZK 38987].wav]
Detected average hi-boundary frequency: 2.111402e+004 Hz
Detected average lo-boundary frequency: 1.791825e+004 Hz
Detected average hi-cut frequency: 2.142339e+004 Hz
Detected average lo-cut frequency: 2.057309e+004 Hz
Maximum probablis boundary frequency: 2.135300e+004 Hz
Coefficient of nonlinearity of a phase: 1.884882e-001
First order smothness: 5.221647e-001
Second order smothness: 7.265818e-001

------------------------------------------------------------
This track looks like CDDA with probability 99%

------------------------------------------------------------
Final Conclusion:
------------------------------------------------------------
These tracks looks like CDDA with probability 100%
Statistics for: Ozzy Osbourne - Bark At The Moon [ZK 38987].wav
Number of Samples: 102929400
-----------------------------------------------

left right

Peak value: -0.57 dB --- -0.92 dB
Avg RMS: -16.70 dB --- -16.66 dB
DR channel: 13.96 dB --- 13.03 dB
-----------------------------------------------

Official DR value: DR13
===============================================

Спасибо Necromandus за материал для раздачи.
Download

Скачать (бесплатно и на максимальной скорости)!

Как скачивать  ·   Что такое torrent (торрент)  ·   Рейтинг и ограничения

Сайт не распространяет и не хранит электронные версии произведений, а лишь предоставляет доступ к создаваемому пользователями каталогу ссылок на торрент-файлы, которые содержат только списки хеш-сумм


 
Показать сообщения:    
Ответить на тему

Текущее время: 02-Мар 05:42

Часовой пояс: GMT + 3



Вы не можете начинать темы
Вы не можете отвечать на сообщения
Вы не можете редактировать свои сообщения
Вы не можете удалять свои сообщения
Вы не можете голосовать в опросах
Вы не можете прикреплять файлы к сообщениям
Вы не можете скачивать файлы