Loading...
Error
Регистрация  · 
Имя: Пароль:    
 ·  Забыли пароль?
Правила пользования ресурсом

Обладатель VIP статуса на 24 часа: nikola120
стань следующим читай правила
Сегодня идет свободное скачивание без начисления скачанного

(Pop) Русский Размер - !Слушай - 2010, FLAC (image + .cue), lossless

Ответить на тему
 
Автор Сообщение

korobok


post 15-Сен-2010 21:54

 

Русский Размер - !Слушай


Страна: Russia
Жанр: Pop
Год выпуска: 2010
Издатель: Квадро-Диск/KTL10-288
Формат: FLAC (image + .cue)
Битрейт аудио: lossless
Продолжительность: 01:19:56

Трэклист:
01. До тебя (5:52)
02. Пластинки (4:33)
03. Кино (6:15)
04. Слушай (4:33)
05. Ничья (3:35)
06. Льдами (4:23)
07. До тебя (radio edit) (3:27)
08. Это весна (4:52)
09. Slushai (remix O*na & РРазмер) (5:01)
10. Leto (club line/X-MODE & РРазмер) (4:19)
11. fashion life (club line) (5:41)
12. [laika]|> (club line) (5:03)
13. DA (O*na & РРазмер) (6:52)
14. Plastinki (Alexey Omen Remix) (5:21)
15. Plastinki (DJ XIM Remix) (5:15)
16. Кино (Vernadi Classic Mix) (4:52)
Exact Audio Copy V0.99 prebeta 5 from 4. May 2009

EAC extraction logfile from 14. September 2010, 17:46

Русский Размер / !Слушай

Used drive : PIONEER DVD-RW DVR-212 Adapter: 8 ID: 0

Read mode : Secure
Utilize accurate stream : Yes
Defeat audio cache : Yes
Make use of C2 pointers : No

Read offset correction : 48
Overread into Lead-In and Lead-Out : No
Fill up missing offset samples with silence : Yes
Delete leading and trailing silent blocks : No
Null samples used in CRC calculations : Yes
Used interface : Installed external ASPI interface

Used output format : Internal WAV Routines
Sample format : 44.100 Hz; 16 Bit; Stereo

TOC of the extracted CD

Track | Start | Length | Start sector | End sector
---------------------------------------------------------
1 | 0:00.00 | 5:52.00 | 0 | 26399
2 | 5:52.00 | 4:33.23 | 26400 | 46897
3 | 10:25.23 | 6:14.71 | 46898 | 75018
4 | 16:40.19 | 4:32.73 | 75019 | 95491
5 | 21:13.17 | 3:35.12 | 95492 | 111628
6 | 24:48.29 | 4:23.32 | 111629 | 131385
7 | 29:11.61 | 3:27.28 | 131386 | 146938
8 | 32:39.14 | 4:51.57 | 146939 | 168820
9 | 37:30.71 | 5:01.27 | 168821 | 191422
10 | 42:32.23 | 4:18.74 | 191423 | 210846
11 | 46:51.22 | 5:40.72 | 210847 | 236418
12 | 52:32.19 | 5:03.19 | 236419 | 259162
13 | 57:35.38 | 6:51.54 | 259163 | 290041
14 | 64:27.17 | 5:21.09 | 290042 | 314125
15 | 69:48.26 | 5:15.35 | 314126 | 337785
16 | 75:03.61 | 4:52.30 | 337786 | 359715

Range status and errors

Selected range

Filename J:\MP3\Русский Размер (FLAC)\Русский Размер - !Слушай (2010) FLAC\Русский Размер - !Слушай.wav

Peak level 96.7 %
Range quality 100.0 %
Test CRC CF9A9516
Copy CRC CF9A9516
Copy OK

No errors occurred

AccurateRip summary
Track 1 not present in database
Track 2 not present in database
Track 3 not present in database
Track 4 not present in database
Track 5 not present in database
Track 6 not present in database
Track 7 not present in database
Track 8 not present in database
Track 9 not present in database
Track 10 not present in database
Track 11 not present in database
Track 12 not present in database
Track 13 not present in database
Track 14 not present in database
Track 15 not present in database
Track 16 not present in database
None of the tracks are present in the AccurateRip database

End of status report
AUDIOCHECKER v2.0 beta (build 457) - by Dester - [email protected]
~~~~~~~~~~~~~~~~~~~~~~~~~~~~~~~~~~
-=== НЕ РЕДАКТИРУЙТЕ ЭТОТ ФАЙЛ! ===-

Путь: ...\Русский Размер - !Слушай (2010) FLAC

1 -=- Русский Размер - !Слушай.flac -=- CDDA (100%)

85540980

Thanks for MrChoice !
Download

Скачать (бесплатно и на максимальной скорости)!

Как скачивать  ·   Что такое torrent (торрент)  ·   Рейтинг и ограничения

Сайт не распространяет и не хранит электронные версии произведений, а лишь предоставляет доступ к создаваемому пользователями каталогу ссылок на торрент-файлы, которые содержат только списки хеш-сумм


 
Показать сообщения:    
Ответить на тему

Текущее время: 18-Сен 10:50

Часовой пояс: GMT + 3



Вы не можете начинать темы
Вы не можете отвечать на сообщения
Вы не можете редактировать свои сообщения
Вы не можете удалять свои сообщения
Вы не можете голосовать в опросах
Вы не можете прикреплять файлы к сообщениям
Вы не можете скачивать файлы



В начало страницы  •