Loading...
Error
Регистрация  · 
Имя: Пароль:    
 ·  Забыли пароль?
Правила пользования ресурсом

Сегодня идет свободное скачивание без начисления скачанного

(Heavy Metal) Judas Priest - Original Album Classics [5CD BOX] - 2008, [NL+0802], lossless

Ответить на тему
 
Автор Сообщение

korobok


post 16-Июл-2010 21:58

 

Judas Priest - Original Album Classics [5CD BOX]


Страна: United Kingdom
Жанр: Heavy Metal
Год выпуска: 2008
Издатель: COLUMBIA / 88697303822CD1-5
Формат: [NL+0802]
Битрейт аудио: lossless
Продолжительность: 04:10:34

Трэклист:
01. Sinner (6:45)
02. Diamonds And Rust (3:27)
03. Starbreaker (4:49)
04. Last Rose Of Summer (5:37)
05. Let Us Prey/Call For The Priest (6:13)
06. Raw Deal (6:00)
07. Here Come The Tears (4:36)
08. Dissident Aggressor (3:08)
09. Race With The Devil (3:07)
10. Jawbreaker (Live) (4:02)
Exact Audio Copy V0.99 prebeta 5 from 4. May 2009

EAC extraction logfile from 10. July 2010, 22:17

Judas Priest / Sin After Sin

Used drive : TSSTcorpCD/DVDW SH-S182M Adapter: 0 ID: 0

Read mode : Secure
Utilize accurate stream : Yes
Defeat audio cache : Yes
Make use of C2 pointers : No

Read offset correction : 6
Overread into Lead-In and Lead-Out : No
Fill up missing offset samples with silence : Yes
Delete leading and trailing silent blocks : No
Null samples used in CRC calculations : Yes
Used interface : Installed external ASPI interface

Used output format : Internal WAV Routines
Sample format : 44.100 Hz; 16 Bit; Stereo

TOC of the extracted CD

Track | Start | Length | Start sector | End sector
---------------------------------------------------------
1 | 0:00.00 | 6:45.02 | 0 | 30376
2 | 6:45.02 | 3:27.21 | 30377 | 45922
3 | 10:12.23 | 4:49.24 | 45923 | 67621
4 | 15:01.47 | 5:37.30 | 67622 | 92926
5 | 20:39.02 | 6:12.51 | 92927 | 120877
6 | 26:51.53 | 6:00.11 | 120878 | 147888
7 | 32:51.64 | 4:36.18 | 147889 | 168606
8 | 37:28.07 | 3:07.57 | 168607 | 182688
9 | 40:35.64 | 3:06.49 | 182689 | 196687
10 | 43:42.38 | 4:02.08 | 196688 | 214845

Range status and errors

Selected range

Filename G:\Judas Priest - Sin After Sin.wav

Peak level 99.8 %
Range quality 100.0 %
Test CRC CD7FA887
Copy CRC CD7FA887
Copy OK

No errors occurred

AccurateRip summary

Track 1 accurately ripped (confidence 8) [236A1D66]
Track 2 accurately ripped (confidence 8) [0743160A]
Track 3 accurately ripped (confidence 8) [B7A359BE]
Track 4 accurately ripped (confidence 8) [A1C16BAA]
Track 5 accurately ripped (confidence 8) [57DB5D57]
Track 6 accurately ripped (confidence 8) [02DA111C]
Track 7 accurately ripped (confidence 8) [C85050B6]
Track 8 accurately ripped (confidence 8) [4C745806]
Track 9 accurately ripped (confidence 8) [1A9085AD]
Track 10 accurately ripped (confidence 8) [307E277B]

All tracks accurately ripped

End of status report
01. Rapid Fire (4:08)
02. Metal Gods (4:01)
03. Breaking The Law (2:36)
04. Grinder (3:58)
05. United (3:36)
06. You Don't Have To Be Old To Be Wise (5:04)
07. Living After Midnight (3:31)
08. The Rage (4:44)
09. Steeler (4:30)
10. Red, White & Blue (3:43)
11. Grinder (Live) (4:49)
Exact Audio Copy V0.99 prebeta 5 from 4. May 2009

EAC extraction logfile from 10. July 2010, 23:06

Judas Priest / British Steel

Used drive : TSSTcorpCD/DVDW SH-S182M Adapter: 0 ID: 0

Read mode : Secure
Utilize accurate stream : Yes
Defeat audio cache : Yes
Make use of C2 pointers : No

Read offset correction : 6
Overread into Lead-In and Lead-Out : No
Fill up missing offset samples with silence : Yes
Delete leading and trailing silent blocks : No
Null samples used in CRC calculations : Yes
Used interface : Installed external ASPI interface

Used output format : Internal WAV Routines
Sample format : 44.100 Hz; 16 Bit; Stereo

TOC of the extracted CD

Track | Start | Length | Start sector | End sector
---------------------------------------------------------
1 | 0:00.00 | 4:08.00 | 0 | 18599
2 | 4:08.00 | 4:00.48 | 18600 | 36647
3 | 8:08.48 | 2:35.42 | 36648 | 48314
4 | 10:44.15 | 3:58.32 | 48315 | 66196
5 | 14:42.47 | 3:35.45 | 66197 | 82366
6 | 18:18.17 | 5:04.24 | 82367 | 105190
7 | 23:22.41 | 3:31.29 | 105191 | 121044
8 | 26:53.70 | 4:44.34 | 121045 | 142378
9 | 31:38.29 | 4:30.24 | 142379 | 162652
10 | 36:08.53 | 3:42.64 | 162653 | 179366
11 | 39:51.42 | 4:49.15 | 179367 | 201056

Range status and errors

Selected range

Filename G:\Judas Priest - British Steel.wav

Peak level 96.4 %
Range quality 99.9 %
Test CRC 92E7E1F3
Copy CRC 92E7E1F3
Copy OK

No errors occurred

AccurateRip summary

Track 1 accurately ripped (confidence 95) [AF2E83BC]
Track 2 accurately ripped (confidence 95) [95CC89EF]
Track 3 accurately ripped (confidence 96) [38EA0CA6]
Track 4 accurately ripped (confidence 96) [E14AAD35]
Track 5 accurately ripped (confidence 96) [78EF7865]
Track 6 accurately ripped (confidence 96) [C47C1F7E]
Track 7 accurately ripped (confidence 96) [1D28F9F8]
Track 8 accurately ripped (confidence 96) [CCAA19E4]
Track 9 accurately ripped (confidence 96) [31CE756B]
Track 10 accurately ripped (confidence 95) [71B917CD]
Track 11 accurately ripped (confidence 93) [3D58BBF0]

All tracks accurately ripped

End of status report
01. Turbo Lover (5:33)
02. Locked In (4:19)
03. Private Property (4:30)
04. Parental Guidance (3:26)
05. Rock You All Around The World (3:38)
06. Out In The Cold (6:27)
07. Wild Nights, Hot & Crazy Days (4:40)
08. Hot For Love (4:12)
09. Reckless (4:20)
10. All Fired Up(Bonus) (4:45)
11. Locked In (Live) (4:25)
Exact Audio Copy V0.99 prebeta 5 from 4. May 2009

EAC extraction logfile from 11. July 2010, 6:22

Judas Priest / Turbo

Used drive : TSSTcorpCD/DVDW SH-S182M Adapter: 0 ID: 0

Read mode : Secure
Utilize accurate stream : Yes
Defeat audio cache : Yes
Make use of C2 pointers : No

Read offset correction : 6
Overread into Lead-In and Lead-Out : No
Fill up missing offset samples with silence : Yes
Delete leading and trailing silent blocks : No
Null samples used in CRC calculations : Yes
Used interface : Installed external ASPI interface

Used output format : Internal WAV Routines
Sample format : 44.100 Hz; 16 Bit; Stereo

TOC of the extracted CD

Track | Start | Length | Start sector | End sector
---------------------------------------------------------
1 | 0:00.00 | 5:33.24 | 0 | 24998
2 | 5:33.24 | 4:19.15 | 24999 | 44438
3 | 9:52.39 | 4:29.50 | 44439 | 64663
4 | 14:22.14 | 3:26.27 | 64664 | 80140
5 | 17:48.41 | 3:38.30 | 80141 | 96520
6 | 21:26.71 | 6:27.28 | 96521 | 125573
7 | 27:54.24 | 4:39.58 | 125574 | 146556
8 | 32:34.07 | 4:11.42 | 146557 | 165423
9 | 36:45.49 | 4:20.12 | 165424 | 184935
10 | 41:05.61 | 4:45.14 | 184936 | 206324
11 | 45:51.00 | 4:24.51 | 206325 | 226175

Range status and errors

Selected range

Filename G:\Judas Priest - Turbo.wav

Peak level 98.7 %
Range quality 100.0 %
Test CRC 00FEA67E
Copy CRC 00FEA67E
Copy OK

No errors occurred

AccurateRip summary

Track 1 accurately ripped (confidence 9) [EECAB0D4]
Track 2 accurately ripped (confidence 9) [D2AEE24F]
Track 3 accurately ripped (confidence 9) [05C02A16]
Track 4 accurately ripped (confidence 9) [9CE2DD27]
Track 5 accurately ripped (confidence 9) [725C400F]
Track 6 accurately ripped (confidence 9) [E1F8D052]
Track 7 accurately ripped (confidence 9) [00B9FEC4]
Track 8 accurately ripped (confidence 9) [6A926040]
Track 9 accurately ripped (confidence 9) [E1CB7670]
Track 10 accurately ripped (confidence 9) [B02FF84F]
Track 11 accurately ripped (confidence 9) [2F417047]

All tracks accurately ripped

End of status report
01. Painkiller (6:07)
02. Hell Patrol (3:37)
03. All Guns Blazing (3:57)
04. Leather Rebel (3:35)
05. Metal Meltdown (4:50)
06. Night Crawler (5:44)
07. Between The Hammer & The Anvil (4:49)
08. A Touch Of Evil (5:44)
09. Battle Hymn (0:56)
10. One Shot At Glory (6:48)
11. Living Bad Dreams (Bonus Track) (5:22)
12. Leather Rebel (Live) (Bonus Track) (3:40)
Exact Audio Copy V0.99 prebeta 5 from 4. May 2009

EAC extraction logfile from 11. July 2010, 16:24

Judas Priest / Painkiller

Used drive : TSSTcorpCD/DVDW SH-S182M Adapter: 0 ID: 0

Read mode : Secure
Utilize accurate stream : Yes
Defeat audio cache : Yes
Make use of C2 pointers : No

Read offset correction : 6
Overread into Lead-In and Lead-Out : No
Fill up missing offset samples with silence : Yes
Delete leading and trailing silent blocks : No
Null samples used in CRC calculations : Yes
Used interface : Installed external ASPI interface

Used output format : Internal WAV Routines
Sample format : 44.100 Hz; 16 Bit; Stereo

TOC of the extracted CD

Track | Start | Length | Start sector | End sector
---------------------------------------------------------
1 | 0:00.00 | 6:06.50 | 0 | 27499
2 | 6:06.50 | 3:36.40 | 27500 | 43739
3 | 9:43.15 | 3:57.20 | 43740 | 61534
4 | 13:40.35 | 3:34.70 | 61535 | 77654
5 | 17:15.30 | 4:50.05 | 77655 | 99409
6 | 22:05.35 | 5:44.32 | 99410 | 125241
7 | 27:49.67 | 4:48.72 | 125242 | 146913
8 | 32:38.64 | 5:44.32 | 146914 | 172745
9 | 38:23.21 | 0:56.36 | 172746 | 176981
10 | 39:19.57 | 6:47.73 | 176982 | 207579
11 | 46:07.55 | 5:21.56 | 207580 | 231710
12 | 51:29.36 | 3:39.46 | 231711 | 248181

Range status and errors

Selected range

Filename G:\Judas Priest - Painkiller.wav

Peak level 99.8 %
Range quality 100.0 %
Test CRC AA40C78D
Copy CRC AA40C78D
Copy OK

No errors occurred

AccurateRip summary

Track 1 accurately ripped (confidence 73) [70689A44]
Track 2 accurately ripped (confidence 74) [B4B7B466]
Track 3 accurately ripped (confidence 72) [142762A2]
Track 4 accurately ripped (confidence 72) [ADAFC6B7]
Track 5 accurately ripped (confidence 71) [6C111D69]
Track 6 accurately ripped (confidence 74) [8CE1C870]
Track 7 accurately ripped (confidence 73) [DD62BF1B]
Track 8 accurately ripped (confidence 73) [AF7490EF]
Track 9 accurately ripped (confidence 74) [1C62F908]
Track 10 accurately ripped (confidence 73) [42B8403C]
Track 11 accurately ripped (confidence 70) [483DEFC0]
Track 12 accurately ripped (confidence 68) [4F82633E]

All tracks accurately ripped

End of status report
01. Judas Rising (Album Version) (4:13)
02. Deal With The Devil (Album Version) (3:55)
03. Revolution (Album Version) (4:43)
04. Worth Fighting For (Album Version) (4:19)
05. Demonizer (Album Version) (4:38)
06. Wheels Of Fire (Album Version) (3:47)
07. Angel (Album Version) (4:24)
08. Hellrider (Album Version) (6:24)
09. Eulogy (Album Version) (2:52)
10. Lochness (Album Version) (13:30)
Exact Audio Copy V0.99 prebeta 5 from 4. May 2009

EAC extraction logfile from 11. July 2010, 17:19

Judas Priest / Angel Of Retribution

Used drive : TSSTcorpCD/DVDW SH-S182M Adapter: 0 ID: 0

Read mode : Secure
Utilize accurate stream : Yes
Defeat audio cache : Yes
Make use of C2 pointers : No

Read offset correction : 6
Overread into Lead-In and Lead-Out : No
Fill up missing offset samples with silence : Yes
Delete leading and trailing silent blocks : No
Null samples used in CRC calculations : Yes
Used interface : Installed external ASPI interface

Used output format : Internal WAV Routines
Sample format : 44.100 Hz; 16 Bit; Stereo

TOC of the extracted CD

Track | Start | Length | Start sector | End sector
---------------------------------------------------------
1 | 0:00.00 | 4:13.07 | 0 | 18981
2 | 4:13.07 | 3:54.63 | 18982 | 36594
3 | 8:07.70 | 4:42.70 | 36595 | 57814
4 | 12:50.65 | 4:18.50 | 57815 | 77214
5 | 17:09.40 | 4:37.70 | 77215 | 98059
6 | 21:47.35 | 3:46.52 | 98060 | 115061
7 | 25:34.12 | 4:24.15 | 115062 | 134876
8 | 29:58.27 | 6:23.43 | 134877 | 163644
9 | 36:21.70 | 2:52.25 | 163645 | 176569
10 | 39:14.20 | 13:29.67 | 176570 | 237311

Range status and errors

Selected range

Filename G:\Judas Priest - Angel Of Retribution.wav

Peak level 100.0 %
Range quality 100.0 %
Test CRC 9ACE0312
Copy CRC 9ACE0312
Copy OK

No errors occurred

AccurateRip summary

Track 1 accurately ripped (confidence 93) [205EF3F1]
Track 2 accurately ripped (confidence 92) [7013304C]
Track 3 accurately ripped (confidence 92) [81787010]
Track 4 accurately ripped (confidence 92) [9D93815B]
Track 5 accurately ripped (confidence 91) [D60F06BB]
Track 6 accurately ripped (confidence 91) [6DD9C27D]
Track 7 accurately ripped (confidence 91) [07C0C2FC]
Track 8 accurately ripped (confidence 91) [3FD446E8]
Track 9 accurately ripped (confidence 91) [6FC16185]
Track 10 accurately ripped (confidence 92) [90548EE8]

All tracks accurately ripped

End of status report


Огромное спасибо edenika за материал для раздачи.
Download

Скачать (бесплатно и на максимальной скорости)!

Как скачивать  ·   Что такое torrent (торрент)  ·   Рейтинг и ограничения

Сайт не распространяет и не хранит электронные версии произведений, а лишь предоставляет доступ к создаваемому пользователями каталогу ссылок на торрент-файлы, которые содержат только списки хеш-сумм


 
Показать сообщения:    
Ответить на тему

Текущее время: 23-Сен 00:15

Часовой пояс: GMT + 3



Вы не можете начинать темы
Вы не можете отвечать на сообщения
Вы не можете редактировать свои сообщения
Вы не можете удалять свои сообщения
Вы не можете голосовать в опросах
Вы не можете прикреплять файлы к сообщениям
Вы не можете скачивать файлы



В начало страницы  •