Loading...
Error
Регистрация  · 
Имя: Пароль:    
 ·  Забыли пароль?
Правила пользования ресурсом

Сегодня идет свободное скачивание без начисления скачанного

(Hard Rock) Krokus - To Rock Or Not To Be - 1999, NL+0802, lossless

Ответить на тему
 
Автор Сообщение

korobok


post 05-Июл-2010 13:53

 

Krokus - To Rock Or Not To Be


Страна: Швейцария
Жанр: Hard Rock
Год выпуска: 1999
Издатель: Angel Air Records/CDM / 0302-821
Формат: NL+0802
Битрейт аудио: lossless
Продолжительность: 1:01:01

Трэклист:

01. Lion Heart (5:15)
02. Flying Through The Night (3:56)
03. To Rock Or Not To Be (3:24)
04. In The Dead Of The Night (5:07)
05. Natural Blonde (5:12)
06. Doggy Style (4:03)
07. Talking Like A Shotgun (4:08)
08. Soul To Soul (4:55)
09. Stop The World (5:14)
10. You Ain't Got The Guts To Do It (3:07)
11. Wagon Gone (5:02)
12. Stormy Nights (5:13)
13. You Ain't Seen Nothin' Yet - Chesslete (6:24)
Exact Audio Copy V0.99 prebeta 5 from 4. May 2009

EAC extraction logfile from 29. June 2010, 21:53

Krokus / To Rock Or Not To Be

Used drive : ASUS DRW-22B2L Adapter: 0 ID: 0

Read mode : Secure
Utilize accurate stream : Yes
Defeat audio cache : Yes
Make use of C2 pointers : No

Read offset correction : 6
Overread into Lead-In and Lead-Out : No
Fill up missing offset samples with silence : Yes
Delete leading and trailing silent blocks : No
Null samples used in CRC calculations : Yes
Used interface : Native Win32 interface for Win NT & 2000

Used output format : Internal WAV Routines
Sample format : 44.100 Hz; 16 Bit; Stereo

TOC of the extracted CD

Track | Start | Length | Start sector | End sector
---------------------------------------------------------
1 | 0:00.00 | 5:15.30 | 0 | 23654
2 | 5:15.30 | 3:56.32 | 23655 | 41386
3 | 9:11.62 | 3:23.58 | 41387 | 56669
4 | 12:35.45 | 5:07.32 | 56670 | 79726
5 | 17:43.02 | 5:12.35 | 79727 | 103161
6 | 22:55.37 | 4:02.65 | 103162 | 121376
7 | 26:58.27 | 4:08.18 | 121377 | 139994
8 | 31:06.45 | 4:54.67 | 139995 | 162111
9 | 36:01.37 | 5:14.30 | 162112 | 185691
10 | 41:15.67 | 3:06.40 | 185692 | 199681
11 | 44:22.32 | 5:01.53 | 199682 | 222309
12 | 49:24.10 | 5:13.05 | 222310 | 245789
13 | 54:37.15 | 6:24.12 | 245790 | 274601

Range status and errors

Selected range

Filename H:\E2K\My Releases\Krokus [1999] To Rock Or Not To Be\Krokus - To Rock Or Not To Be.wav

Peak level 79.4 %
Range quality 99.9 %
Test CRC E7B9822B
Copy CRC E7B9822B
Copy OK

No errors occurred

AccurateRip summary

Track 1 cannot be verified as accurate (confidence 4) [56973E36], AccurateRip returned [08851213]
Track 2 cannot be verified as accurate (confidence 4) [BE19F465], AccurateRip returned [01B121C9]
Track 3 cannot be verified as accurate (confidence 4) [735B4755], AccurateRip returned [4621F66A]
Track 4 cannot be verified as accurate (confidence 4) [B7699C2E], AccurateRip returned [2D30E452]
Track 5 cannot be verified as accurate (confidence 4) [F073E12D], AccurateRip returned [028EEC68]
Track 6 cannot be verified as accurate (confidence 4) [477E4A44], AccurateRip returned [012BE9C4]
Track 7 cannot be verified as accurate (confidence 4) [3E4519CE], AccurateRip returned [2D6C9EE4]
Track 8 cannot be verified as accurate (confidence 4) [D7BDBA77], AccurateRip returned [48A13656]
Track 9 cannot be verified as accurate (confidence 4) [3B00C383], AccurateRip returned [59BD5A15]
Track 10 cannot be verified as accurate (confidence 4) [079749B7], AccurateRip returned [DD945E36]
Track 11 cannot be verified as accurate (confidence 4) [AD57B27B], AccurateRip returned [6F6752F0]
Track 12 cannot be verified as accurate (confidence 4) [378DF257], AccurateRip returned [6BD5C621]
Track 13 cannot be verified as accurate (confidence 3) [3B8F0B80], AccurateRip returned [4BFA5EA6]

No tracks could be verified as accurate
You may have a different pressing from the one(s) in the database

End of status report
Огромное спасибо релизёру phiv за предоставленный материал.
Download

Скачать (бесплатно и на максимальной скорости)!

Как скачивать  ·   Что такое torrent (торрент)  ·   Рейтинг и ограничения

Сайт не распространяет и не хранит электронные версии произведений, а лишь предоставляет доступ к создаваемому пользователями каталогу ссылок на торрент-файлы, которые содержат только списки хеш-сумм


 

Rost2


post 05-Июл-2010 16:31

 

Ждёмс
 

Rost2


post 17-Июл-2010 14:48

 

Так и чего с Крокусом, раздача будет или нет
 

rwa12


post 17-Июл-2010 15:02

 

Rost2 писал(а):

Так и чего с Крокусом, раздача будет или нет
Напиши лучше в личку,здесь не каждый день читают,потому что раздач много.
 

korobok


post 17-Июл-2010 18:04

 

Странно, я постоянно на раздаче, но не раздаётся.
Rost2, тебя и в списке личеров нет.
 

Rost2


post 17-Июл-2010 23:12

 

Приём пошёл, Спасибо, не знаю как но Процесс Пошёл(с)
 
Показать сообщения:    
Ответить на тему

Текущее время: 19-Сен 05:49

Часовой пояс: GMT + 3



Вы не можете начинать темы
Вы не можете отвечать на сообщения
Вы не можете редактировать свои сообщения
Вы не можете удалять свои сообщения
Вы не можете голосовать в опросах
Вы не можете прикреплять файлы к сообщениям
Вы не можете скачивать файлы



В начало страницы  •