Loading...
Error
Регистрация  · 
Имя: Пароль:    
 ·  Забыли пароль?
Правила пользования ресурсом

Обладатель VIP статуса на 24 часа: nikola120
стань следующим читай правила
Сегодня идет свободное скачивание без начисления скачанного

(Meditative) New Era - China Broadcasting Chinese Orchestra & Richard Clayderman - 2003, FLAC (tracks), lossless

Ответить на тему
 
Автор Сообщение

[email protected] Rasta


post 28-Июн-2010 02:52

 

New Era - China Broadcasting Chinese Orchestra & Richard Clayderman

Страна: New Zealand
Жанр: Meditative
Год выпуска: 2003
Формат: FLAC (tracks)
Битрейт аудио: lossless
Продолжительность: 01:11:15
Трэклист:
  1. Little River Flows
  2. Li Chang
  3. Faraway Place
  4. Story of Spring
  5. The Shepherdess
  6. Cicada
  7. Kangding Love Song
  8. Qin Warriors
  9. New Era
  10. Faraway Place (Chill-Out Mix)
  11. Li Chang (Radio Edit)
  12. New Era (Radio Edit)
  13. Dance of the Yao People


Доп. информация: "NEW ERA" представляет собой сотрудничество между хорошо известным пианистом и оркестром China Broadcasting Chinese Orchestra.
Ричард Клайдерман выступает как солист с China Broadcasting Chinese Orchestra благодаря Decca Records.

Код:

Exact Audio Copy V0.99 prebeta 5 from 4. May 2009

Отчёт EAC об извлечении, выполненном 28. июня 2010, 2:09

New Era / China Broadcasting Chinese Orchestra

Дисковод: ASUS    DRW-24B1LT   Adapter: 1  ID: 1

Режим чтения                 : Достоверность
Использование точного потока : Да
Отключение кэша аудио        : Нет
Использование указателей C2  : Нет

Коррекция смещения при чтении                     : 6
Способность читать области Lead-in и Lead-out     : Нет
Заполнение пропущенных сэмплов тишиной            : Да
Удаление блоков с тишиной в начале и конце        : Нет
При вычислениях CRC использовались нулевые сэмплы : Нет
Интерфейс                                         : Встроенный Win32-интерфейс для Win NT/2000
Обработка зазоров                                 : Не обнаружено, добавлено к предыдущему треку

Выходной формат          : Пользовательский кодировщик
Выбранный битрейт        : 768 kBit/s
Качество                 : Высокий
Добавление ID3-тэга      : Нет
Утилита сжатия           : C:\Program Files (x86)\Exact Audio Copy\FLAC\FLAC.EXE
Дополнительные параметры : -6 -V -T "ARTIST=%a" -T "TITLE=%t" -T "ALBUM=%g" -T "DATE=%y" -T "TRACKNUMBER=%n" -T "GENRE=%m" -T "COMMENT=%e" %s -o %d

TOC извлечённого CD

     Трек |   Старт  | Длительность | Начальный сектор | Конечный сектор
    ---------------------------------------------------------------------
       1  |  0:00.00 |    3:33.68   |           0      |      16042     
       2  |  3:33.68 |    6:37.13   |       16043      |      45830     
       3  | 10:11.06 |    6:56.35   |       45831      |      77065     
       4  | 17:07.41 |    5:24.10   |       77066      |     101375     
       5  | 22:31.51 |    4:13.57   |      101376      |     120407     
       6  | 26:45.33 |    5:13.51   |      120408      |     143933     
       7  | 31:59.09 |    6:53.05   |      143934      |     174913     
       8  | 38:52.14 |    6:21.00   |      174914      |     203488     
       9  | 45:13.14 |    6:00.34   |      203489      |     230522     
      10  | 51:13.48 |    6:24.42   |      230523      |     259364     
      11  | 57:38.15 |    3:26.45   |      259365      |     274859     
      12  | 61:04.60 |    3:30.32   |      274860      |     290641     
      13  | 64:35.17 |    6:39.48   |      290642      |     320614     

Трек  1

     Имя файла D:\MUSIC\New Era\7\New Era - Little River Flows.wav

     Пиковый уровень 97.7 %
     Качество трека 100.0 %
     CRC теста 0A7524BC
     CRC копии 0A7524BC
     Точное извлечение (достоверность 1)  [1203E1EF]
     Копирование... OK

Трек  2

     Имя файла D:\MUSIC\New Era\7\New Era - Li Chang.wav

     Пиковый уровень 97.7 %
     Качество трека 99.9 %
     CRC теста A378E252
     CRC копии A378E252
     Точное извлечение (достоверность 1)  [C786C59E]
     Копирование... OK

Трек  3

     Имя файла D:\MUSIC\New Era\7\New Era - Faraway Place.wav

     Пиковый уровень 97.7 %
     Качество трека 100.0 %
     CRC теста 91F67C49
     CRC копии 91F67C49
     Точное извлечение (достоверность 1)  [ED402D5C]
     Копирование... OK

Трек  4

     Имя файла D:\MUSIC\New Era\7\New Era - Story Of Spring.wav

     Пиковый уровень 97.7 %
     Качество трека 100.0 %
     CRC теста CDF2A0A2
     CRC копии CDF2A0A2
     Точное извлечение (достоверность 1)  [E439CFFC]
     Копирование... OK

Трек  5

     Имя файла D:\MUSIC\New Era\7\New Era - The Shepherdess.wav

     Пиковый уровень 97.7 %
     Качество трека 100.0 %
     CRC теста C257D1C4
     CRC копии C257D1C4
     Точное извлечение (достоверность 1)  [63E219B8]
     Копирование... OK

Трек  6

     Имя файла D:\MUSIC\New Era\7\New Era - Cicada.wav

     Пиковый уровень 97.7 %
     Качество трека 100.0 %
     CRC теста 33390FE0
     CRC копии 33390FE0
     Точное извлечение (достоверность 1)  [76496AA1]
     Копирование... OK

Трек  7

     Имя файла D:\MUSIC\New Era\7\New Era - Kangding Love Song.wav

     Пиковый уровень 97.7 %
     Качество трека 99.9 %
     CRC теста C7FCA8D6
     CRC копии C7FCA8D6
     Точное извлечение (достоверность 1)  [C7F18C8D]
     Копирование... OK

Трек  8

     Имя файла D:\MUSIC\New Era\7\New Era - Qin Warriors.wav

     Пиковый уровень 97.7 %
     Качество трека 100.0 %
     CRC теста F6280750
     CRC копии F6280750
     Точное извлечение (достоверность 1)  [0AC654DF]
     Копирование... OK

Трек  9

     Имя файла D:\MUSIC\New Era\7\New Era - New Era.wav

     Пиковый уровень 97.7 %
     Качество трека 100.0 %
     CRC теста E5ABD647
     CRC копии E5ABD647
     Точное извлечение (достоверность 1)  [EF2ADF97]
     Копирование... OK

Трек 10

     Имя файла D:\MUSIC\New Era\7\New Era - Faraway Place (Chill-out Mix).wav

     Пиковый уровень 97.7 %
     Качество трека 100.0 %
     CRC теста 5000498A
     CRC копии 5000498A
     Точное извлечение (достоверность 1)  [723C892B]
     Копирование... OK

Трек 11

     Имя файла D:\MUSIC\New Era\7\New Era - Li Chang (Radio Edit).wav

     Пиковый уровень 97.7 %
     Качество трека 100.0 %
     CRC теста 1FD66C73
     CRC копии 1FD66C73
     Точное извлечение (достоверность 1)  [A881BCE6]
     Копирование... OK

Трек 12

     Имя файла D:\MUSIC\New Era\7\New Era - New Era (Radio Edit).wav

     Пиковый уровень 97.7 %
     Качество трека 100.0 %
     CRC теста A21724DB
     CRC копии A21724DB
     Точное извлечение (достоверность 1)  [69BCA4DE]
     Копирование... OK

Трек 13

     Имя файла D:\MUSIC\New Era\7\New Era - Dance Of The Yao People.wav

     Пиковый уровень 97.7 %
     Качество трека 100.0 %
     CRC теста 17C6B3E3
     CRC копии 17C6B3E3
     Точное извлечение (достоверность 1)  [BC93D700]
     Копирование... OK

Все треки извлечены точно

Ошибок не произошло

Конец отчёта
Download

Скачать (бесплатно и на максимальной скорости)!

Как скачивать  ·   Что такое torrent (торрент)  ·   Рейтинг и ограничения

Сайт не распространяет и не хранит электронные версии произведений, а лишь предоставляет доступ к создаваемому пользователями каталогу ссылок на торрент-файлы, которые содержат только списки хеш-сумм


 

korobok


post 30-Июл-2010 22:06

 

[email protected] Rasta
Необходимо для раздач в Lossless прикладывать Log EAC
Срок на исправление 3 дня, исправите, стучите в личку с обязательным указанием ссылки на раздачу.
________________________
изучите Правила пользования ресурсом и
СОЗДАНИЕ СОБСТВЕННОГО РЕЛИЗА и для возникающих вопросов
Правила, основные инструкции, FAQ и Общие правила оформления раздач в разделе Музыка (для всех разделов, включая lossy и lossless)
 
Показать сообщения:    
Ответить на тему

Текущее время: 30-Окт 01:00

Часовой пояс: GMT + 3



Вы не можете начинать темы
Вы не можете отвечать на сообщения
Вы не можете редактировать свои сообщения
Вы не можете удалять свои сообщения
Вы не можете голосовать в опросах
Вы не можете прикреплять файлы к сообщениям
Вы не можете скачивать файлы



В начало страницы  •