Loading...
Error
Регистрация  · 
Имя: Пароль:    
 ·  Забыли пароль?
Правила пользования ресурсом

Сегодня идет свободное скачивание без начисления скачанного

(Progressive Rock) David Gilmour - Live at Pompeii, (BSCD2, Japan)(2CD) - 2017[FLAC, image +.cue, lossless]

Ответить на тему
 
Автор Сообщение

sergej644


post 07-Янв-2018 19:36

 


David Gilmour - Live at Pompeii, (BSCD2, Japan)(2CD)


Год издания: 2017
Страна: UK
Жанр: Progressive Rock
Продолжительность: 02:28:34
Лейбл издания: Columbia Records, a division of Sony Music Entertainment
Страна-выпуска диска: Japan
Номер по каталогу: SICP-31083
Формат: FLAC
Битрейт аудио: Lossless
Тип рипа: image +.cue
Наличие сканов в содержимом раздачи: да

01. 5 A.M. [Live at Pompeii 2016] (3:14)
02. Rattle That Lock [Live at Pompeii 2016] (5:23)
03. Faces of Stone [Live at Pompeii 2016] (6:01)
04. What Do You Want From Me [Live at Pompeii 2016] (4:31)
05. The Blue [Live at Pompeii 2016] (6:34)
06. The Great Gig in the Sky [Live at Pompeii 2016] (6:03)
07. A Boat Lies Waiting [Live at Pompeii 2016] (4:55)
08. Wish You Were Here [Live at Pompeii 2016] (5:18)
09. Money [Live at Pompeii 2016] (8:13)
10. In Any Tongue [Live at Pompeii 2016] (7:47)
11. High Hopes [Live at Pompeii 2016] (9:31)
12. One of These Days [Live at Pompeii 2016] (6:32)
01. Shine on You Crazy Diamond, Pts. 1-5 [Live at Pompeii 2016] (12:33)
02. Fat Old Sun [Live at Pompeii 2016] (6:05)
03. Coming Back to Life [Live at Pompeii 2016] (7:18)
04. On an Island [Live at Pompeii 2016] (7:02)
05. Today [Live at Pompeii 2016] (6:41)
06. Sorrow [Live at Pompeii 2016] (10:50)
07. Run Like Hell [Live at Pompeii 2016] (7:16)
08. Time/Breathe (In The Air) (Reprise) [Live at Pompeii 2016] (6:46)
09. Comfortably Numb [Live at Pompeii 2016] (10:00)


Код:

Exact Audio Copy V1.3 from 2. September 2016

EAC extraction logfile from 24. December 2017, 16:53

David Gilmour / Live at Pompeii (Disc 1)

Used drive  : ASUS    DRW-24B3LT   Adapter: 1  ID: 0

Read mode               : Secure
Utilize accurate stream : Yes
Defeat audio cache      : Yes
Make use of C2 pointers : No

Read offset correction                      : 6
Overread into Lead-In and Lead-Out          : No
Fill up missing offset samples with silence : Yes
Delete leading and trailing silent blocks   : No
Null samples used in CRC calculations       : Yes
Used interface                              : Native Win32 interface for Win NT & 2000

Used output format : Internal WAV Routines
Sample format      : 44.100 Hz; 16 Bit; Stereo

TOC of the extracted CD

     Track |   Start  |  Length  | Start sector | End sector
    ---------------------------------------------------------
        1  |  0:00.00 |  3:13.64 |         0    |    14538
        2  |  3:13.64 |  5:23.11 |     14539    |    38774
        3  |  8:37.00 |  6:00.57 |     38775    |    65831
        4  | 14:37.57 |  4:30.59 |     65832    |    86140
        5  | 19:08.41 |  6:33.46 |     86141    |   115661
        6  | 25:42.12 |  6:02.74 |    115662    |   142885
        7  | 31:45.11 |  4:55.37 |    142886    |   165047
        8  | 36:40.48 |  5:18.34 |    165048    |   188931
        9  | 41:59.07 |  8:13.10 |    188932    |   225916
       10  | 50:12.17 |  7:47.23 |    225917    |   260964
       11  | 57:59.40 |  9:31.00 |    260965    |   303789
       12  | 67:30.40 |  6:32.19 |    303790    |   333208

Range status and errors

Selected range

     Filename D:\Osieron\My Documents\Desktop\Test&Copy\David Gilmour - Live at Pompeii (Disc 1).wav

     Peak level 100.0 %
     Extraction speed 6.8 X
     Range quality 99.9 %
     Test CRC 55E12901
     Copy CRC 55E12901
     Copy OK

No errors occurred

AccurateRip summary

Track  1  accurately ripped (confidence 32)  [9A14CF3E]  (AR v2)
Track  2  accurately ripped (confidence 32)  [5FEEA596]  (AR v2)
Track  3  accurately ripped (confidence 32)  [B91064F7]  (AR v2)
Track  4  accurately ripped (confidence 32)  [2FE99687]  (AR v2)
Track  5  accurately ripped (confidence 32)  [EA097B2D]  (AR v2)
Track  6  accurately ripped (confidence 32)  [FBBC5A05]  (AR v2)
Track  7  accurately ripped (confidence 32)  [D4830D53]  (AR v2)
Track  8  accurately ripped (confidence 32)  [39DA2333]  (AR v2)
Track  9  accurately ripped (confidence 32)  [4232047D]  (AR v2)
Track 10  accurately ripped (confidence 32)  [760DE004]  (AR v2)
Track 11  accurately ripped (confidence 32)  [C170647E]  (AR v2)
Track 12  accurately ripped (confidence 32)  [F1454A19]  (AR v2)

All tracks accurately ripped

End of status report

Код:

Exact Audio Copy V1.3 from 2. September 2016

EAC extraction logfile from 24. December 2017, 17:17

David Gilmour / Live at Pompeii (Disc 2)

Used drive  : ASUS    DRW-24B3LT   Adapter: 1  ID: 0

Read mode               : Secure
Utilize accurate stream : Yes
Defeat audio cache      : Yes
Make use of C2 pointers : No

Read offset correction                      : 6
Overread into Lead-In and Lead-Out          : No
Fill up missing offset samples with silence : Yes
Delete leading and trailing silent blocks   : No
Null samples used in CRC calculations       : Yes
Used interface                              : Native Win32 interface for Win NT & 2000

Used output format : Internal WAV Routines
Sample format      : 44.100 Hz; 16 Bit; Stereo

TOC of the extracted CD

     Track |   Start  |  Length  | Start sector | End sector
    ---------------------------------------------------------
        1  |  0:00.00 | 12:32.70 |         0    |    56469
        2  | 12:32.70 |  6:05.24 |     56470    |    83868
        3  | 18:38.19 |  7:18.30 |     83869    |   116748
        4  | 25:56.49 |  7:01.61 |    116749    |   148384
        5  | 32:58.35 |  6:40.42 |    148385    |   178426
        6  | 39:39.02 | 10:50.23 |    178427    |   227199
        7  | 50:29.25 |  7:16.04 |    227200    |   259903
        8  | 57:45.29 |  6:45.63 |    259904    |   290341
        9  | 64:31.17 |  9:59.63 |    290342    |   335329

Range status and errors

Selected range

     Filename D:\Osieron\My Documents\Desktop\Test&Copy\David Gilmour - Live at Pompeii (Disc 2).wav

     Peak level 98.9 %
     Extraction speed 6.8 X
     Range quality 99.9 %
     Test CRC 3EB82269
     Copy CRC 3EB82269
     Copy OK

No errors occurred

AccurateRip summary

Track  1  accurately ripped (confidence 27)  [28E3600A]  (AR v2)
Track  2  accurately ripped (confidence 26)  [8D18F826]  (AR v2)
Track  3  accurately ripped (confidence 26)  [34068680]  (AR v2)
Track  4  accurately ripped (confidence 27)  [270B3573]  (AR v2)
Track  5  accurately ripped (confidence 27)  [604C2708]  (AR v2)
Track  6  accurately ripped (confidence 27)  [337394CB]  (AR v2)
Track  7  accurately ripped (confidence 27)  [A36FD1CA]  (AR v2)
Track  8  accurately ripped (confidence 26)  [29AFA30F]  (AR v2)
Track  9  accurately ripped (confidence 26)  [7311949A]  (AR v2)

All tracks accurately ripped

End of status report

Код:

REM GENRE "Pop/Rock"
REM DATE 2017
REM DISCID 91115A0C
REM COMMENT "ExactAudioCopy v1.3"
PERFORMER "David Gilmour"
TITLE "Live at Pompeii (Disc 1)"
REM COMPOSER ""
FILE "David Gilmour - Live at Pompeii (Disc 1).flac" WAVE
  TRACK 01 AUDIO
    TITLE "5 A.M. [Live at Pompeii 2016]"
    PERFORMER "David Gilmour"
    REM COMPOSER ""
    INDEX 01 00:00:00
  TRACK 02 AUDIO
    TITLE "Rattle That Lock [Live at Pompeii 2016]"
    PERFORMER "David Gilmour"
    REM COMPOSER ""
    INDEX 01 03:13:64
  TRACK 03 AUDIO
    TITLE "Faces of Stone [Live at Pompeii 2016]"
    PERFORMER "David Gilmour"
    REM COMPOSER ""
    INDEX 01 08:37:00
  TRACK 04 AUDIO
    TITLE "What Do You Want From Me [Live at Pompeii 2016]"
    PERFORMER "David Gilmour"
    REM COMPOSER ""
    INDEX 01 14:37:57
  TRACK 05 AUDIO
    TITLE "The Blue [Live at Pompeii 2016]"
    PERFORMER "David Gilmour"
    REM COMPOSER ""
    INDEX 01 19:08:41
  TRACK 06 AUDIO
    TITLE "The Great Gig in the Sky [Live at Pompeii 2016]"
    PERFORMER "David Gilmour"
    REM COMPOSER ""
    INDEX 01 25:42:12
  TRACK 07 AUDIO
    TITLE "A Boat Lies Waiting [Live at Pompeii 2016]"
    PERFORMER "David Gilmour"
    REM COMPOSER ""
    INDEX 01 31:45:11
  TRACK 08 AUDIO
    TITLE "Wish You Were Here [Live at Pompeii 2016]"
    PERFORMER "David Gilmour"
    REM COMPOSER ""
    INDEX 01 36:40:48
  TRACK 09 AUDIO
    TITLE "Money [Live at Pompeii 2016]"
    PERFORMER "David Gilmour"
    REM COMPOSER ""
    INDEX 01 41:59:07
  TRACK 10 AUDIO
    TITLE "In Any Tongue [Live at Pompeii 2016]"
    PERFORMER "David Gilmour"
    REM COMPOSER ""
    INDEX 01 50:12:17
  TRACK 11 AUDIO
    TITLE "High Hopes [Live at Pompeii 2016]"
    PERFORMER "David Gilmour"
    REM COMPOSER ""
    INDEX 01 57:59:40
  TRACK 12 AUDIO
    TITLE "One of These Days [Live at Pompeii 2016]"
    PERFORMER "David Gilmour"
    REM COMPOSER ""
    INDEX 01 67:30:40

Код:

REM GENRE "Pop/Rock"
REM DATE 2017
REM DISCID 79117709
REM COMMENT "ExactAudioCopy v1.3"
PERFORMER "David Gilmour"
TITLE "Live at Pompeii (Disc 2)"
REM COMPOSER ""
FILE "David Gilmour - Live at Pompeii (Disc 2).flac" WAVE
  TRACK 01 AUDIO
    TITLE "Shine on You Crazy Diamond, Pts. 1-5 [Live at Pompeii 2016]"
    PERFORMER "David Gilmour"
    REM COMPOSER ""
    INDEX 01 00:00:00
  TRACK 02 AUDIO
    TITLE "Fat Old Sun [Live at Pompeii 2016]"
    PERFORMER "David Gilmour"
    REM COMPOSER ""
    INDEX 01 12:32:70
  TRACK 03 AUDIO
    TITLE "Coming Back to Life [Live at Pompeii 2016]"
    PERFORMER "David Gilmour"
    REM COMPOSER ""
    INDEX 01 18:38:19
  TRACK 04 AUDIO
    TITLE "On an Island [Live at Pompeii 2016]"
    PERFORMER "David Gilmour"
    REM COMPOSER ""
    INDEX 01 25:56:49
  TRACK 05 AUDIO
    TITLE "Today [Live at Pompeii 2016]"
    PERFORMER "David Gilmour"
    REM COMPOSER ""
    INDEX 01 32:58:35
  TRACK 06 AUDIO
    TITLE "Sorrow [Live at Pompeii 2016]"
    PERFORMER "David Gilmour"
    REM COMPOSER ""
    INDEX 01 39:39:02
  TRACK 07 AUDIO
    TITLE "Run Like Hell [Live at Pompeii 2016]"
    PERFORMER "David Gilmour"
    REM COMPOSER ""
    INDEX 01 50:29:25
  TRACK 08 AUDIO
    TITLE "Time/Breathe (In The Air) (Reprise) [Live at Pompeii 2016]"
    PERFORMER "David Gilmour"
    REM COMPOSER ""
    INDEX 01 57:45:29
  TRACK 09 AUDIO
    TITLE "Comfortably Numb [Live at Pompeii 2016]"
    PERFORMER "David Gilmour"
    REM COMPOSER ""
    INDEX 01 64:31:17
Японский лимитированный Deluxe выпуск (2Blu-spec CD2 + 2Blu-ray) - издание включает двухдневный концерт лидера легендарной группы Pink Floyd Дэвида Гилмора, прошедший в Помпеи 7-8 июля 2016 года. Четыре диска упакованы в deluxe box. В комплект входят: шикарный буклет в твердом переплете, постер и четыре открытки. Сольный концерт одного из выдающихся музыкантов современности – лидера легендарной группы Pink Floyd Дэвида Гилмора. Этот концерт был исполнен Гилмором две ночи подряд 7 и 8 июля 2016 на арене древнеримского амфитеатра в Помпеях спустя 45 лет после записи одноименного концерта группы Pink Floyd. На руинах древнего города собрались 2 600 поклонников музыканта, чтобы насладиться выступлением своего кумира. Во время концерта были исполнены заглавные композиции с последних альбомов Гилмора Rattle That Lock и On An Island, а также уже ставшие классикой Wish You Were Here, Comfortably Numb, One Of These Days и многие другие.

«David Gilmour: Live At Pompeii» – это небывалое по своей энергетике мощное, красочное шоу с использованием пиротехнических установок, объемных лазерных инсталляций и окружной кинопанорамы, на которой демонстрируется видео – арт, специально созданный для визуального сопровождения происходящего на сцене. 2 600 человек - ровно столько поклонников музыканта собралось на руинах древнего города, чтобы насладиться выступлениями своего кумира!


Download

Скачать (бесплатно и на максимальной скорости)!

Как скачивать  ·   Что такое torrent (торрент)  ·   Рейтинг и ограничения

Сайт не распространяет и не хранит электронные версии произведений, а лишь предоставляет доступ к создаваемому пользователями каталогу ссылок на торрент-файлы, которые содержат только списки хеш-сумм


 
Показать сообщения:    
Ответить на тему

Текущее время: 18-Сен 23:19

Часовой пояс: GMT + 3



Вы не можете начинать темы
Вы не можете отвечать на сообщения
Вы не можете редактировать свои сообщения
Вы не можете удалять свои сообщения
Вы не можете голосовать в опросах
Вы не можете прикреплять файлы к сообщениям
Вы не можете скачивать файлы



В начало страницы  •