Loading...
Error
Регистрация  · 
Имя: Пароль:    
 ·  Забыли пароль?
Правила пользования ресурсом

Обладатель VIP статуса на 24 часа: nikola120
стань следующим читай правила
Сегодня идет свободное скачивание без начисления скачанного

Водный мир Хорватии / Aquatic Treasures of Croatia (Бруно Ковачевич) (4 серии из 4) [2012, документальный, HDTVRip 1080p] VO

Ответить на тему
 
Автор Сообщение

DED


post 27-Сен-2013 07:38

 



Водный мир Хорватии / Aquatic Treasures of Croatia


Год выхода: 2012
Страна: Хорватия
Студия: HRT
Жанр: документальный
Продолжительность: 4 x ~00:51:51
Перевод: Студийный (одноголосый закадровый) [SDI-Media - Юрий Большаков]
Режиссер: Бруно Ковачевич
О фильме: Мы отправимся в удивительное путешествие по самым красивым заповедникам и паркам Хорватии: национальный парк «Плитвицкие озёра», а также природные парки Ластово и Копачки Рит. Заповедники и парки Хорватии поражают, в первую очередь, буйством красок и оттенков, и разнообразием флоры и фауны. Мы посетим различные территории и увидим, как изменяется климат в зависимости от их ландшафта. Мы станем свидетелями того, как разбросанные по всей страны парки и заповедники составляют одно целое и, как специалистам удается сохранить их нетронутыми, несмотря на туристический бизнес.



Качество: HDTVRip 1080p
Формат: MKV
Видео кодек: H.264
Аудио кодек: АС3
Видео: 1920x1064 (1.80:1), 25.000 fps, MPEG-4 AVC, ~11.5 Mbps avg, 0.225 bit/pixel
Аудио: 48.0 kHz, AC3 Dolby Digital, 2.0 (L,R) ch, ~384.00 kbps avg
Субтитры: нет

Формат : Matroska
Версия формата : Version 2
Размер файла : 4,31 Гбайт
Продолжительность : 51 м.
Общий поток : 11,9 Мбит/сек
Название фильма : Release for MediaClub by AlexAndr92
Дата кодирования : UTC 2013-09-23 16:29:00
Программа кодирования : mkvmerge v4.0.0 ('The Stars were mine') сборка от Jun 6 2010 16:18:42
Библиотека кодирования : libebml v1.0.0 + libmatroska v1.0.0

Видео
Идентификатор : 1
Формат : AVC
Формат/Информация : Advanced Video Codec
Профиль формата : [email protected]
Параметр CABAC формата : Да
Параметр ReFrames формата : 4 кадра
Идентификатор кодека : V_MPEG4/ISO/AVC
Продолжительность : 51 м.
Битрейт : 11,5 Мбит/сек
Ширина : 1920 пикселей
Высота : 1064 пикселя
Соотношение сторон : 16:9
Режим частоты кадров : Постоянный
Частота кадров : 25,000 кадров/сек
Цветовое пространство : YUV
Субдискретизация насыщенности : 4:2:0
Битовая глубина : 8 бит
Тип развёртки : Прогрессивная
Бит/(Пиксели*Кадры) : 0.225
Размер потока : 4,08 Гбайт (95%)
Библиотека кодирования : x264 core 130 r2273 b3065e6
Настройки программы : cabac=1 / ref=4 / deblock=1:-1:-1 / analyse=0x3:0x133 / me=umh / subme=11 / psy=1 / psy_rd=1.00:0.15 / mixed_ref=1 / me_range=32 / chroma_me=1 / trellis=2 / 8x8dct=1 / cqm=0 / deadzone=21,11 / fast_pskip=0 / chroma_qp_offset=-3 / threads=6 / lookahead_threads=1 / sliced_threads=0 / nr=0 / decimate=0 / interlaced=0 / bluray_compat=0 / constrained_intra=0 / bframes=8 / b_pyramid=2 / b_adapt=2 / b_bias=0 / direct=3 / weightb=1 / open_gop=0 / weightp=2 / keyint=250 / keyint_min=25 / scenecut=40 / intra_refresh=0 / rc=2pass / mbtree=0 / bitrate=11500 / ratetol=1.0 / qcomp=0.60 / qpmin=0 / qpmax=69 / qpstep=4 / cplxblur=20.0 / qblur=0.5 / ip_ratio=1.40 / pb_ratio=1.30 / aq=1:1.00
Default : Нет
Forced : Нет

Аудио
Идентификатор : 2
Формат : AC-3
Формат/Информация : Audio Coding 3
Расширение режима : CM (complete main)
Параметр Endianness формата : Big
Идентификатор кодека : A_AC3
Продолжительность : 51 м.
Вид битрейта : Постоянный
Битрейт : 384 Кбит/сек
Каналы : 2 канала
Расположение каналов : Front: L R
Частота : 48,0 КГц
Битовая глубина : 16 бит
Метод сжатия : С потерями
Размер потока : 143 Мбайт (3%)
Default : Нет
Forced : Нет




Download

Скачать (бесплатно и на максимальной скорости)!

Как скачивать  ·   Что такое torrent (торрент)  ·   Рейтинг и ограничения

Сайт не распространяет и не хранит электронные версии произведений, а лишь предоставляет доступ к создаваемому пользователями каталогу ссылок на торрент-файлы, которые содержат только списки хеш-сумм


 
Показать сообщения:    
Ответить на тему

Текущее время: 16-Дек 14:11

Часовой пояс: GMT + 3



Вы не можете начинать темы
Вы не можете отвечать на сообщения
Вы не можете редактировать свои сообщения
Вы не можете удалять свои сообщения
Вы не можете голосовать в опросах
Вы не можете прикреплять файлы к сообщениям
Вы не можете скачивать файлы



В начало страницы  •