Loading...
Error
Регистрация  · 
Имя: Пароль:    
 ·  Забыли пароль?
Правила пользования ресурсом

Обладатель VIP статуса на 24 часа:
стань следующим читай правила
Сегодня идет свободное скачивание без начисления скачанного

Тайны дикой природы Индии: Хищники джунглей / Тигр Джунглей / Secrets of Wild India: Tiger Jungles (Дункан Чард) [2012, документальный, HDTVRip-AVC] VO

Ответить на тему
 
Автор Сообщение

O.S.A.


post 04-Июл-2013 13:57

 



Тайны дикой природы Индии: Хищники джунглей
Secrets of Wild India: Tiger Jungles


Год выпуска: 2012
Страна: США
Жанр: документальный
Продолжительность: 00:44:59
Перевод: Профессиональный (одноголосый) [Игорь Тарадайкин]
Режиссер: Дункан Чард
Описание: На поле боя, где правят клыки и когти, хищники, такие как бенгальский тигр и красный волк, конкурируют за территорию, воду и пищу.



Kачество: HDTVRip-AVC (Исходник: HDTV 1080i)
Формат: MKV
Видео кодек: H.264
Аудио кодек: МР2
Видео: 1024x576 (1.78:1), 25.000 fps, MPEG-4 AVC, ~1980 kbps avg, 0.134 bit/pixel
Аудио: 48.0 KHz, MPEG Layer 2, 2 ch, ~192.00 kbps avg
Субтитры: нет

General
Unique ID : 187847482730358663448936848287867245229 (0x8D521BF452925DE7A772BC35942292AD)
Complete name : E:Tajny.dikoj.prirody.Indii.Hishhniki.dzhunglej.2012.HDTVRip-AVC.mkv
Format : Matroska
Format version : Version 2
File size : 700 MiB
Duration : 44mn 59s
Overall bit rate : 2 174 Kbps
Encoded date : UTC 2013-07-01 23:55:31
Writing application : mkvmerge v6.1.0 ('Old Devil') built on Mar 4 2013 09:10:42
Writing library : libebml v1.3.0 + libmatroska v1.4.0

Video
ID : 1
Format : AVC
Format/Info : Advanced Video Codec
Format profile : [email protected]
Format settings, CABAC : Yes
Format settings, ReFrames : 11 frames
Codec ID : V_MPEG4/ISO/AVC
Duration : 44mn 59s
Bit rate : 1 980 Kbps
Width : 1 024 pixels
Height : 576 pixels
Display aspect ratio : 16:9
Frame rate : 25.000 fps
Color space : YUV
Chroma subsampling : 4:2:0
Bit depth : 8 bits
Scan type : Progressive
Bits/(Pixel*Frame) : 0.134
Stream size : 624 MiB (89%)
Writing library : x264 core 130 r2273 b3065e6
Encoding settings : cabac=1 / ref=11 / deblock=1:-2:-1 / analyse=0x3:0x113 / me=umh / subme=9 / psy=1 / psy_rd=1.00:0.20 / mixed_ref=1 / me_range=32 / chroma_me=1 / trellis=1 / 8x8dct=1 / cqm=0 / deadzone=21,11 / fast_pskip=0 / chroma_qp_offset=-3 / threads=3 / lookahead_threads=1 / sliced_threads=0 / nr=0 / decimate=0 / interlaced=0 / bluray_compat=0 / constrained_intra=0 / bframes=8 / b_pyramid=2 / b_adapt=2 / b_bias=0 / direct=3 / weightb=1 / open_gop=0 / weightp=2 / keyint=250 / keyint_min=25 / scenecut=40 / intra_refresh=0 / rc_lookahead=60 / rc=2pass / mbtree=1 / bitrate=1980 / ratetol=1.0 / qcomp=0.60 / qpmin=0 / qpmax=69 / qpstep=4 / cplxblur=20.0 / qblur=0.5 / ip_ratio=1.40 / aq=1:1.00

Audio
ID : 2
Format : MPEG Audio
Format version : Version 1
Format profile : Layer 2
Codec ID : A_MPEG/L2
Codec ID/Hint : MP2
Duration : 44mn 59s
Bit rate mode : Constant
Bit rate : 192 Kbps
Channel(s) : 2 channels
Sampling rate : 48.0 KHz
Compression mode : Lossy
Stream size : 61.8 MiB (9%)
Language : English




Download

Скачать (бесплатно и на максимальной скорости)!

Как скачивать  ·   Что такое torrent (торрент)  ·   Рейтинг и ограничения

Сайт не распространяет и не хранит электронные версии произведений, а лишь предоставляет доступ к создаваемому пользователями каталогу ссылок на торрент-файлы, которые содержат только списки хеш-сумм


 
Показать сообщения:    
Ответить на тему

Текущее время: 19-Окт 15:59

Часовой пояс: GMT + 3



Вы не можете начинать темы
Вы не можете отвечать на сообщения
Вы не можете редактировать свои сообщения
Вы не можете удалять свои сообщения
Вы не можете голосовать в опросах
Вы не можете прикреплять файлы к сообщениям
Вы не можете скачивать файлы



В начало страницы  •