Loading...
Error
Регистрация  · 
Имя: Пароль:    
 ·  Забыли пароль?
Правила пользования ресурсом

Обладатель VIP статуса на 24 часа:
стань следующим читай правила
Сегодня идет свободное скачивание без начисления скачанного

Тайны дикой природы Индии: В царстве слонов / Королевство слонов / Secrets of Wild India: Elephant Kingdom (Дункан Чард) [2012, документальный, HDTVRip] VO

Ответить на тему
 
Автор Сообщение

O.S.A.


post 04-Июл-2013 13:43

 



Тайны дикой природы Индии: В царстве слонов
Secrets of Wild India: Elephant Kingdom


Год выпуска: 2012
Страна: США
Жанр: документальный
Продолжительность: 00:44:59
Перевод: Профессиональный (одноголосый) [Игорь Тарадайкин]
Режиссер: Дункан Чард
Описание: Посмотрите на мир гигантских травоядных, обитающих в предгорьях Гималаев в Индии, глазами новорожденного слонёнка.



Kачество: HDTVRip (Исходник: HDTV 1080i)
Формат: AVI
Видео кодек: XviD
Аудио кодек: МР2
Видео: 720x400 (1.80:1), 25.000 fps, XviD MPEG-4, ~1976 kbps avg, 0.274 bit/pixel
Аудио: 48.0 KHz, MPEG Layer 2, 2 ch, ~192.00 kbps avg
Субтитры: нет

General
Complete name : E:Tajny.dikoj.prirody.Indii.V.carstve.slonov.2012.HDTVRip.avi
Format : AVI
Format/Info : Audio Video Interleave
File size : 701 MiB
Duration : 44mn 59s
Overall bit rate : 2 178 Kbps
Writing application : VirtualDubMod 1.5.10.3 | www.virtualdub-fr.org || (build 2550/release)
Writing library : VirtualDubMod build 2550/release

Video
ID : 0
Format : MPEG-4 Visual
Format profile : Advanced [email protected]
Format settings, BVOP : 1
Format settings, QPel : No
Format settings, GMC : No warppoints
Format settings, Matrix : Custom
Codec ID : XVID
Codec ID/Hint : XviD
Duration : 44mn 59s
Bit rate : 1 976 Kbps
Width : 720 pixels
Height : 400 pixels
Display aspect ratio : 16:9
Frame rate : 25.000 fps
Color space : YUV
Chroma subsampling : 4:2:0
Bit depth : 8 bits
Scan type : Progressive
Compression mode : Lossy
Bits/(Pixel*Frame) : 0.274
Stream size : 636 MiB (91%)
Writing library : XviD 73

Audio
ID : 1
Format : MPEG Audio
Format version : Version 1
Format profile : Layer 2
Codec ID : 50
Duration : 44mn 59s
Bit rate mode : Constant
Bit rate : 192 Kbps
Channel(s) : 2 channels
Sampling rate : 48.0 KHz
Compression mode : Lossy
Stream size : 61.8 MiB (9%)
Alignment : Aligned on interleaves
Interleave, duration : 40 ms (1.00 video frame)
Interleave, preload duration : 504 ms




Download

Скачать (бесплатно и на максимальной скорости)!

Как скачивать  ·   Что такое torrent (торрент)  ·   Рейтинг и ограничения

Сайт не распространяет и не хранит электронные версии произведений, а лишь предоставляет доступ к создаваемому пользователями каталогу ссылок на торрент-файлы, которые содержат только списки хеш-сумм


 
Показать сообщения:    
Ответить на тему

Текущее время: 19-Окт 21:31

Часовой пояс: GMT + 3



Вы не можете начинать темы
Вы не можете отвечать на сообщения
Вы не можете редактировать свои сообщения
Вы не можете удалять свои сообщения
Вы не можете голосовать в опросах
Вы не можете прикреплять файлы к сообщениям
Вы не можете скачивать файлы



В начало страницы  •