Loading...
Error
Регистрация  · 
Имя: Пароль:    
 ·  Забыли пароль?
Правила пользования ресурсом

Обладатель VIP статуса на 24 часа:
стань следующим читай правила
Сегодня идет свободное скачивание без начисления скачанного

Птицы / Le peuple migrateur / Winged Migration (Жак Перрен, Жак Клюзо, Мишель Деба) [2001 г., документальный, HDRip] VO

Ответить на тему
 
Автор Сообщение

O.S.A.


post 01-Мар-2013 12:54

 



Птицы / Le peuple migrateur / Winged Migration


Год выпуска: 2001
Страна: Франция, Италия, Германия, Испания, Швейцария
Жанр: документальный
Продолжительность: 01:29:17
Перевод: Профессиональный (одноголосый закадровый)
Режиссер: Жак Перрен, Жак Клюзо, Мишель Деба
Описание: Этот сенсационный фильм — зрелище настолько завораживающее, что никакие спецэффекты не смогли бы передать невообразимую реальность происходящего. Работа операторов поистине уникальна — впервые в истории кино птиц снимали непосредственно во время полета.

Чтобы запечатлеть сезонные миграции главных героев, была максимально усовершенствована съемочная техника, ведь снимать пришлось и в арктическом холоде, и в болоте, и в тумане, а главное — были разработаны сверхлегкие летательные аппараты, способные летать со скоростью и на высоте птиц. Над фильмом работало около 500 человек из разных стран мира, съемки заняли целых три года.



Качество: HDRip
Формат: AVI
Видео кодек: XviD
Аудио кодек: MP3
Видео: 704x384 (1.83:1), 23.976 fps, XviD MPEG-4, ~1029 kbps avg, 0.159 bit/pixel
Аудио: 48.0 kHz, MPEG Layer 3, 2 ch, ~128.00 kbps avg
Субтитры: нет

General
Complete name : D:Pticy.2001.HDRip.XviD.mp3.745mb.YTN.avi
Format : AVI
Format/Info : Audio Video Interleave
File size : 745 MiB
Duration : 1h 29mn
Overall bit rate : 1 166 Kbps
Writing application : VirtualDubMod 1.5.10.2 (build 2540/release)
Writing library : VirtualDubMod build 2540/release

Video
ID : 0
Format : MPEG-4 Visual
Format profile : Advanced [email protected]
Format settings, BVOP : 1
Format settings, QPel : No
Format settings, GMC : No warppoints
Format settings, Matrix : Custom
Codec ID : XVID
Codec ID/Hint : XviD
Duration : 1h 29mn
Bit rate : 1 029 Kbps
Width : 704 pixels
Height : 384 pixels
Display aspect ratio : 16:9
Frame rate : 23.976 fps
Color space : YUV
Chroma subsampling : 4:2:0
Bit depth : 8 bits
Scan type : Progressive
Compression mode : Lossy
Bits/(Pixel*Frame) : 0.159
Stream size : 657 MiB (88%)
Writing library : XviD 65

Audio
ID : 1
Format : MPEG Audio
Format version : Version 1
Format profile : Layer 3
Mode : Joint stereo
Codec ID : 55
Codec ID/Hint : MP3
Duration : 1h 29mn
Bit rate mode : Constant
Bit rate : 128 Kbps
Channel(s) : 2 channels
Sampling rate : 48.0 KHz
Compression mode : Lossy
Stream size : 81.7 MiB (11%)
Alignment : Aligned on interleaves
Interleave, duration : 42 ms (1.00 video frame)
Interleave, preload duration : 504 ms


Download

Скачать (бесплатно и на максимальной скорости)!

Как скачивать  ·   Что такое torrent (торрент)  ·   Рейтинг и ограничения

Сайт не распространяет и не хранит электронные версии произведений, а лишь предоставляет доступ к создаваемому пользователями каталогу ссылок на торрент-файлы, которые содержат только списки хеш-сумм


 
Показать сообщения:    
Ответить на тему

Текущее время: 19-Окт 16:29

Часовой пояс: GMT + 3



Вы не можете начинать темы
Вы не можете отвечать на сообщения
Вы не можете редактировать свои сообщения
Вы не можете удалять свои сообщения
Вы не можете голосовать в опросах
Вы не можете прикреплять файлы к сообщениям
Вы не можете скачивать файлы



В начало страницы  •