Loading...
Error
Регистрация  · 
Имя: Пароль:    
 ·  Забыли пароль?
Правила пользования ресурсом

Обладатель VIP статуса на 24 часа:
стань следующим читай правила
Сегодня идет свободное скачивание без начисления скачанного

BBC: Бесконечная бесконечность / Сквозь бесконечность / BBC: Horizon. To Infinity and Beyond (Стивен Бекофф / Steven Berkoff) [2010 г., Документальный, HDTVRip]

Ответить на тему
 
Автор Сообщение

digitex


post 05-Апр-2012 19:19

 




______________________
Год выпуска: 2010
Страна: Великобритания
Жанр: Документальный
Продолжительность: 00:59:11
Перевод: Любительский (одноголосый)+оригинал
______________________

Режиссер: Стивен Бекофф / Steven Berkoff
В ролях: Профессора,астрономы
______________________

Описание:
К третьему году жизни большинство из нас уже умеют считать. С тех пор, как мы постигаем магию чисел, нас ничто не может остановить. Хотя концепция бесконечности и выглядит довольно безобидно, просто продолжайте считать, и мир представится в совсем ином свете! Математикам удалось выявить огромное количество бесконечностей, причем каждая последующая оказалась больше предыдущей. В том случае, если Вселенная действительно бесконечна, последствия могут быть еще более непредсказуемы. В бесконечной Вселенной может существовать бесконечное количество копий Земли и... Ваших копий! Старше времени, больше Вселенной, невероятней научной фантастики... История бесконечности.

В фильме упоминается число Грэхэма. Чтобы понять, что оно из себя представляет - не поленитесь узнать больше! Даже если Вы совсем не разбираетесь в математике - пять минут усилий принесут вам ... интересное ощущение, когда начинаешь понимать ЧТО ЭТО!
______________________

Качество: HDTVRip
Формат: MKV
Видео кодек: H.264
Аудио кодек: AC3
Видео: MPEG4 Video (H264) 1280x720 25fps [English (Video 1) [Default]]
Аудио: Dolby AC3 48000Hz stereo [russian (Audio 1) [Default]]
Аудио: Dolby AC3 48000Hz stereo [English (Audio 2)]

General
Unique ID : 245861145727174170438216651064661810315 (0xB8F7225FA1D922129AFC52DF96B89C8B)
Complete name : D:\BBC_Horizon_2010_To_Infinity_and_Beyond(VO_Juan_Rojas).mkv
Format : Matroska
Format version : Version 2
File size : 1.81 GiB
Duration : 59mn 11s
Overall bit rate : 4 384 Kbps
Encoded date : UTC 2011-12-06 07:26:58
Writing application : mkvmerge v5.1.0 ('And so it goes') built on Nov 28 2011 23:58:28
Writing library : libebml v1.2.3 + libmatroska v1.3.0

Video
ID : 1
Format : AVC
Format/Info : Advanced Video Codec
Format profile : [email protected]
Format settings, CABAC : Yes
Format settings, ReFrames : 4 frames
Muxing mode : Header stripping
Codec ID : V_MPEG4/ISO/AVC
Duration : 59mn 11s
Bit rate : 4 000 Kbps
Width : 1 280 pixels
Height : 720 pixels
Display aspect ratio : 16:9
Frame rate : 25.000 fps
Color space : YUV
Chroma subsampling : 4:2:0
Bit depth : 8 bits
Scan type : Progressive
Bits/(Pixel*Frame) : 0.174
Stream size : 1.62 GiB (89%)
Writing library : x264 core 80 r1376M 3feaec2
Encoding settings : cabac=1 / ref=4 / deblock=1:0:0 / analyse=0x3:0x113 / me=umh / subme=9 / psy=1 / psy_rd=1.0:0.0 / mixed_ref=0 / me_range=24 / chroma_me=1 / trellis=1 / 8x8dct=1 / cqm=0 / deadzone=21,11 / fast_pskip=0 / chroma_qp_offset=-2 / threads=3 / sliced_threads=0 / nr=0 / decimate=1 / mbaff=0 / constrained_intra=0 / bframes=3 / b_pyramid=0 / b_adapt=1 / b_bias=0 / direct=1 / wpredb=1 / wpredp=2 / keyint=125 / keyint_min=25 / scenecut=40 / rc_lookahead=40 / rc=2pass / mbtree=1 / bitrate=4000 / ratetol=1.0 / qcomp=0.60 / qpmin=10 / qpmax=51 / qpstep=4 / cplxblur=20.0 / qblur=0.5 / vbv_maxrate=50000 / vbv_bufsize=50000 / ip_ratio=1.40 / aq=1:1.00
Language : English
Default : Yes
Forced : No

Audio #1
ID : 2
Format : AC-3
Format/Info : Audio Coding 3
Mode extension : CM (complete main)
Muxing mode : Header stripping
Codec ID : A_AC3
Duration : 59mn 11s
Bit rate mode : Constant
Bit rate : 192 Kbps
Channel(s) : 2 channels
Channel positions : Front: L R
Sampling rate : 48.0 KHz
Bit depth : 16 bits
Compression mode : Lossy
Stream size : 81.3 MiB (4%)
Title : BBC_Horizon_2010_To_Infinity_and_Beyond(VO_Juan_Rojas)
Default : Yes
Forced : No

Audio #2
ID : 3
Format : AC-3
Format/Info : Audio Coding 3
Mode extension : CM (complete main)
Muxing mode : Header stripping
Codec ID : A_AC3
Duration : 59mn 11s
Bit rate mode : Constant
Bit rate : 192 Kbps
Channel(s) : 2 channels
Channel positions : Front: L R
Sampling rate : 48.0 KHz
Bit depth : 16 bits
Compression mode : Lossy
Delay relative to video : 16ms
Stream size : 81.3 MiB (4%)
Language : English
Default : No
Forced : No

Download

Скачать (бесплатно и на максимальной скорости)!

Как скачивать  ·   Что такое torrent (торрент)  ·   Рейтинг и ограничения

Сайт не распространяет и не хранит электронные версии произведений, а лишь предоставляет доступ к создаваемому пользователями каталогу ссылок на торрент-файлы, которые содержат только списки хеш-сумм


 

digitex


post 05-Апр-2012 19:21

 

Не рекомендую: Блондинкам,Домохозяйкам,Лицам с ограниченной фантазией
 

product1990


post 06-Апр-2012 07:36

 

Интересно чё они курят?)))
 

digitex


post 07-Апр-2012 18:51

 

product1990 писал(а):

Интересно чё они курят?)))

Удалено.
Оффто́пик

Rost55
 

Theseus


post 07-Апр-2012 19:14

 

digitex - Читаем > Правила пользования ресурсом <
 
Показать сообщения:    
Ответить на тему

Текущее время: 19-Окт 16:02

Часовой пояс: GMT + 3



Вы не можете начинать темы
Вы не можете отвечать на сообщения
Вы не можете редактировать свои сообщения
Вы не можете удалять свои сообщения
Вы не можете голосовать в опросах
Вы не можете прикреплять файлы к сообщениям
Вы не можете скачивать файлы



В начало страницы  •