Loading...
Error
Регистрация  · 
Имя: Пароль:    
 ·  Забыли пароль?
Правила пользования ресурсом

Обладатель VIP статуса на 24 часа: nikola120
стань следующим читай правила
Сегодня идет свободное скачивание без начисления скачанного

Iron Maiden: En Vivo! [2012 г., Heavy Metal, Blu-ray]

Ответить на тему
 
Автор Сообщение

cataman


post 31-Мар-2012 11:05

 

Iron Maiden: En Vivo!


Год выпуска: 2012
Жанр: Heavy Metal
Продолжительность: 01:55:59

Треклист:

01. Satellite 15
02. The Final Frontier
03. El Dorado
04. 2 Minutes To Midnight
05. The Talisman
06. Coming Home
07. Dance Of Death
08. The Trooper
09. The Wicker Man
10. Blood Brothers
11. When The Wild Wind Blows
12. The Evil That Men Do
13. Fear Of The Dark
14. Iron Maiden
15. The Number Of The Beast
16. Hallowed Be Thy Name
17. Running Free

Бонус:
Behind The Beast documentary
Satellite 15
The Final Frontier promo video (director's cut)
The Making of Satellite 15
The Final Frontier promo
The Final Frontier World Tour Show Intro

Качество: Blu-ray
Формат:BDMV
Видео кодек:MPEG-4 AVC
Аудио кодек:PCM, AC3, DTS
Видео:1920x1080p, MPEG-4 AVC, 23,976 fps, ~25000 Kbps
Аудио №1:DTS-HD MA 5.1 (48 kHz / 2730 kbps / 16-bit)
Аудио №2:Dolby Digital 5.1 (48 kHz / 448 kbps)
Аудио №3:LPCM 2.0 (48 kHz / 1536 kbps / 16-bit)

Код:

Disc Title: IRON_MAIDEN_EN_VIVO_HDCLUB
Disc Size: 49 526 409 264 bytes
Protection: AACS
BD-Java: No
BDInfo: 0.5.6
Notes:
BDINFO HOME:
Cinema Squid
[url=http://www.cinemasquid.com/blu-ray/tools/bdinfo]http&#...fo[/url]
INCLUDES FORUMS REPORT FOR:
AVS Forum Blu-ray Audio and Video Specifications Thread
[url=http://www.avsforum.com/avs-vb/showthread.php?t=1155731 ...31[/url]
********************
PLAYLIST: 00012.MPLS
********************

[code]
Total   Video
Title                                                           Codec   Length  Movie Size      Disc Size       Bitrate Bitrate Main Audio Track                          Secondary Audio Track
-----                                                           ------  ------- --------------  --------------  ------- ------- ------------------                        ---------------------
00012.MPLS                                                      AVC     1:55:59 27 464 798 208  49 526 409 264  31,57   25,00   DTS-HD Master 5.1 2730Kbps (48kHz/16-bit) DD AC3 5.1 448Kbps
[/code]
[code]
DISC INFO:
Disc Title:     IRON_MAIDEN_EN_VIVO_HDCLUB
Disc Size:      49 526 409 264 bytes
Protection:     AACS
BD-Java:        No
BDInfo:         0.5.6
PLAYLIST REPORT:
Name:                   00012.MPLS
Length:                 1:55:59 (h:m:s)
Size:                   27 464 798 208 bytes
Total Bitrate:          31,57 Mbps
VIDEO:
Codec                   Bitrate             Description
-----                   -------             -----------
MPEG-4 AVC Video        25000 kbps          1080p / 23,976 fps / 16:9 / High Profile 4.1
AUDIO:
Codec                           Language        Bitrate         Description
-----                           --------        -------         -----------
DTS-HD Master Audio             English         2730 kbps       5.1 / 48 kHz / 2730 kbps / 16-bit (DTS Core: 5.1 / 48 kHz / 1509 kbps / 16-bit)
Dolby Digital Audio             English         448 kbps        5.1 / 48 kHz / 448 kbps
LPCM Audio                      English         1536 kbps       2.0 / 48 kHz / 1536 kbps / 16-bit
FILES:
Name            Time In         Length          Size            Total Bitrate
----            -------         ------          ----            -------------
00016.M2TS      0:00:00.000     1:55:59.577     27 464 798 208  31 571
CHAPTERS:
Number          Time In         Length          Avg Video Rate  Max 1-Sec Rate  Max 1-Sec Time  Max 5-Sec Rate  Max 5-Sec Time  Max 10Sec Rate  Max 10Sec Time  Avg Frame Size  Max Frame Size  Max Frame Time
------          -------         ------          --------------  --------------  --------------  --------------  --------------  --------------  --------------  --------------  --------------  --------------
1               0:00:00.000     0:04:44.742     22 744 kbps     45 957 kbps     00:00:19.686    38 324 kbps     00:00:29.696    33 437 kbps     00:00:24.733    118 560 bytes   621 991 bytes   00:01:09.486
2               0:04:44.742     0:04:09.415     27 506 kbps     44 308 kbps     00:05:37.503    37 290 kbps     00:06:22.632    33 845 kbps     00:06:18.669    143 406 bytes   564 232 bytes   00:05:51.976
3               0:08:54.158     0:05:53.227     23 466 kbps     47 365 kbps     00:14:26.115    37 188 kbps     00:12:36.422    33 478 kbps     00:12:34.795    122 341 bytes   636 493 bytes   00:12:56.108
4               0:14:47.386     0:05:47.555     26 067 kbps     47 004 kbps     00:16:37.579    36 748 kbps     00:15:19.877    34 123 kbps     00:16:30.614    135 899 bytes   645 491 bytes   00:19:46.560
5               0:20:34.942     0:08:45.900     22 982 kbps     49 927 kbps     00:26:27.961    34 177 kbps     00:26:24.207    32 815 kbps     00:27:39.491    119 815 bytes   558 038 bytes   00:28:54.315
6               0:29:20.842     0:07:09.387     26 415 kbps     42 283 kbps     00:32:00.752    35 879 kbps     00:30:15.814    32 596 kbps     00:29:42.405    137 715 bytes   674 759 bytes   00:30:15.855
7               0:36:30.229     0:08:57.787     24 540 kbps     48 488 kbps     00:37:12.730    38 770 kbps     00:37:05.056    37 821 kbps     00:37:04.847    127 938 bytes   658 311 bytes   00:41:01.542
8               0:45:28.016     0:03:58.321     26 203 kbps     47 086 kbps     00:45:42.156    36 086 kbps     00:47:54.037    31 334 kbps     00:47:50.117    136 608 bytes   668 201 bytes   00:47:29.263
9               0:49:26.338     0:04:36.943     26 583 kbps     45 671 kbps     00:51:14.237    37 272 kbps     00:52:53.128    32 930 kbps     00:49:42.980    138 594 bytes   632 231 bytes   00:52:57.549
10              0:54:03.281     0:10:44.018     26 124 kbps     43 437 kbps     00:54:28.974    39 201 kbps     00:54:27.138    34 857 kbps     00:54:25.345    136 201 bytes   660 010 bytes   00:54:27.180
11              1:04:47.300     0:10:31.464     25 120 kbps     43 631 kbps     01:09:56.066    36 951 kbps     01:13:30.280    33 591 kbps     01:13:24.650    130 965 bytes   663 138 bytes   01:12:29.053
12              1:15:18.764     0:04:21.761     25 978 kbps     47 145 kbps     01:18:15.941    37 770 kbps     01:18:13.647    35 283 kbps     01:18:10.977    135 440 bytes   540 024 bytes   01:17:09.750
13              1:19:40.525     0:07:34.453     24 264 kbps     43 686 kbps     01:23:16.241    38 087 kbps     01:23:52.193    35 676 kbps     01:23:48.106    126 502 bytes   589 336 bytes   01:21:57.203
14              1:27:14.979     0:05:54.353     25 929 kbps     49 286 kbps     01:31:49.837    37 821 kbps     01:29:15.349    34 404 kbps     01:29:13.723    135 181 bytes   671 207 bytes   01:29:45.129
15              1:33:09.333     0:04:58.506     21 911 kbps     41 170 kbps     01:35:58.461    32 629 kbps     01:37:03.234    30 360 kbps     01:34:36.045    114 235 bytes   659 653 bytes   01:38:03.669
16              1:38:07.840     0:07:29.490     27 156 kbps     47 997 kbps     01:45:17.185    38 753 kbps     01:39:40.391    36 431 kbps     01:42:04.993    141 577 bytes   591 523 bytes   01:42:20.676
17              1:45:37.331     0:07:47.008     28 130 kbps     46 873 kbps     01:48:04.060    39 526 kbps     01:52:07.011    36 878 kbps     01:48:59.282    146 659 bytes   673 172 bytes   01:46:22.084
18              1:53:24.339     0:02:35.238     9 552 kbps      15 198 kbps     01:53:33.973    13 729 kbps     01:55:30.465    13 484 kbps     01:55:26.836    49 811 bytes    270 247 bytes   01:55:28.963
STREAM DIAGNOSTICS:
File            PID             Type            Codec           Language                Seconds                 Bitrate                 Bytes           Packets
----            ---             ----            -----           --------                --------------          --------------          -------------   -----
00016.M2TS      4113 (0x1011)   0x1B            AVC                                     6959,494                25 000                  21 748 267 313  118 294 826
00016.M2TS      4352 (0x1100)   0x80            LPCM            eng (English)           6959,494                1 542                   1 341 807 024   8 351 496
00016.M2TS      4353 (0x1101)   0x86            DTS-HD MA       eng (English)           6959,494                2 730                   2 374 849 812   13 991 438
00016.M2TS      4354 (0x1102)   0x81            AC3             eng (English)           6959,494                448                     389 736 704     2 174 870
[/code]

QUICK SUMMARY:
Disc Title: IRON_MAIDEN_EN_VIVO_HDCLUB
Disc Size: 49 526 409 264 bytes
Protection: AACS
BD-Java: No
Playlist: 00012.MPLS
Size: 27 464 798 208 bytes
Length: 1:55:59
Total Bitrate: 31,57 Mbps
Video: MPEG-4 AVC Video / 25000 kbps / 1080p / 23,976 fps / 16:9 / High Profile 4.1
Audio: English / DTS-HD Master Audio / 5.1 / 48 kHz / 2730 kbps / 16-bit (DTS Core: 5.1 / 48 kHz / 1509 kbps / 16-bit)
Audio: English / Dolby Digital Audio / 5.1 / 48 kHz / 448 kbps
Audio: English / LPCM Audio / 2.0 / 48 kHz / 1536 kbps / 16-bit
********************
PLAYLIST: 00002.MPLS
********************

[code]
Total   Video
Title                                                           Codec   Length  Movie Size      Disc Size       Bitrate Bitrate Main Audio Track                          Secondary Audio Track
-----                                                           ------  ------- --------------  --------------  ------- ------- ------------------                        ---------------------
00002.MPLS                                                      AVC     1:27:51 18 761 324 544  49 526 409 264  28,47   21,51   DTS-HD Master 5.1 2537Kbps (48kHz/16-bit) DD AC3 5.1 448Kbps
[/code]
[code]
DISC INFO:
Disc Title:     IRON_MAIDEN_EN_VIVO_HDCLUB
Disc Size:      49 526 409 264 bytes
Protection:     AACS
BD-Java:        No
BDInfo:         0.5.6
PLAYLIST REPORT:
Name:                   00002.MPLS
Length:                 1:27:51 (h:m:s)
Size:                   18 761 324 544 bytes
Total Bitrate:          28,47 Mbps
VIDEO:
Codec                   Bitrate             Description
-----                   -------             -----------
MPEG-4 AVC Video        21508 kbps          1080p / 23,976 fps / 16:9 / High Profile 4.1
AUDIO:
Codec                           Language        Bitrate         Description
-----                           --------        -------         -----------
DTS-HD Master Audio             English         2537 kbps       5.1 / 48 kHz / 2537 kbps / 16-bit (DTS Core: 5.1 / 48 kHz / 1509 kbps / 16-bit)
Dolby Digital Audio             English         448 kbps        5.1 / 48 kHz / 448 kbps
LPCM Audio                      English         1536 kbps       2.0 / 48 kHz / 1536 kbps / 16-bit
SUBTITLES:
Codec                           Language        Bitrate         Description
-----                           --------        -------         -----------
Presentation Graphics           English         64,031 kbps
Presentation Graphics           Dutch           57,770 kbps
Presentation Graphics           French          64,832 kbps
Presentation Graphics           German          65,537 kbps
Presentation Graphics           Hindi           45,786 kbps
Presentation Graphics           Italian         56,442 kbps
Presentation Graphics           Japanese        38,979 kbps
Presentation Graphics           Portuguese      61,342 kbps
Presentation Graphics           Portuguese      58,365 kbps
Presentation Graphics           Spanish         61,011 kbps
Presentation Graphics           Spanish         57,021 kbps
Presentation Graphics           Swedish         52,226 kbps
FILES:
Name            Time In         Length          Size            Total Bitrate
----            -------         ------          ----            -------------
00002.M2TS      0:00:00.000     1:27:51.724     18 761 324 544  28 471
CHAPTERS:
Number          Time In         Length          Avg Video Rate  Max 1-Sec Rate  Max 1-Sec Time  Max 5-Sec Rate  Max 5-Sec Time  Max 10Sec Rate  Max 10Sec Time  Avg Frame Size  Max Frame Size  Max Frame Time
------          -------         ------          --------------  --------------  --------------  --------------  --------------  --------------  --------------  --------------  --------------  --------------
1               0:00:00.000     0:10:02.435     18 981 kbps     49 297 kbps     00:01:29.798    35 170 kbps     00:01:42.352    31 684 kbps     00:01:37.514    98 949 bytes    506 285 bytes   00:01:29.964
2               0:10:02.435     0:10:04.437     20 850 kbps     38 625 kbps     00:16:50.342    33 342 kbps     00:18:27.523    31 927 kbps     00:18:27.439    108 700 bytes   576 599 bytes   00:13:28.516
3               0:20:06.872     0:10:13.404     22 338 kbps     45 132 kbps     00:28:29.541    38 240 kbps     00:27:58.968    36 044 kbps     00:28:20.532    116 460 bytes   728 517 bytes   00:28:30.500
4               0:30:20.276     0:09:54.510     21 892 kbps     41 985 kbps     00:31:23.006    37 874 kbps     00:38:50.661    34 495 kbps     00:32:47.715    114 137 bytes   662 012 bytes   00:31:05.321
5               0:40:14.787     0:10:04.270     23 903 kbps     46 543 kbps     00:44:52.731    39 439 kbps     00:44:49.812    38 322 kbps     00:44:49.853    124 621 bytes   577 244 bytes   00:49:42.938
6               0:50:19.057     0:09:45.376     17 911 kbps     37 822 kbps     00:59:45.415    31 758 kbps     00:59:45.331    28 272 kbps     00:59:41.035    93 381 bytes    727 594 bytes   00:53:46.389
7               1:00:04.434     0:10:27.752     23 838 kbps     48 446 kbps     01:07:33.299    37 691 kbps     01:09:14.233    37 104 kbps     01:10:22.051    124 280 bytes   535 098 bytes   01:07:27.460
8               1:10:32.186     0:10:18.326     23 806 kbps     42 380 kbps     01:19:03.530    38 584 kbps     01:17:35.942    36 060 kbps     01:17:30.937    124 114 bytes   541 025 bytes   01:19:23.300
9               1:20:50.512     0:07:01.212     19 035 kbps     46 820 kbps     01:22:11.927    38 579 kbps     01:20:54.391    35 457 kbps     01:22:39.412    99 248 bytes    568 894 bytes   01:24:23.641
STREAM DIAGNOSTICS:
File            PID             Type            Codec           Language                Seconds                 Bitrate                 Bytes           Packets
----            ---             ----            -----           --------                --------------          --------------          -------------   -----
00002.M2TS      4113 (0x1011)   0x1B            AVC                                     5271,641                21 508                  14 173 121 182  77 101 938
00002.M2TS      4352 (0x1100)   0x80            LPCM            eng (English)           5271,641                1 542                   1 016 388 580   6 326 070
00002.M2TS      4353 (0x1101)   0x86            DTS-HD MA       eng (English)           5271,641                2 537                   1 671 823 476   9 907 907
00002.M2TS      4354 (0x1102)   0x81            AC3             eng (English)           5271,641                448                     295 217 664     1 647 420
00002.M2TS      4608 (0x1200)   0x90            PGS             eng (English)           5271,641                64                      42 194 022      238 197
00002.M2TS      4609 (0x1201)   0x90            PGS             fra (French)            5271,641                65                      42 722 292      241 305
00002.M2TS      4610 (0x1202)   0x90            PGS             deu (German)            5271,641                66                      43 186 344      243 859
00002.M2TS      4611 (0x1203)   0x90            PGS             ita (Italian)           5271,641                56                      37 193 335      211 146
00002.M2TS      4612 (0x1204)   0x90            PGS             nld (Dutch)             5271,641                58                      38 068 236      215 705
00002.M2TS      4613 (0x1205)   0x90            PGS             por (Portuguese)        5271,641                61                      40 422 057      228 726
00002.M2TS      4614 (0x1206)   0x90            PGS             por (Portuguese)        5271,641                58                      38 460 376      218 085
00002.M2TS      4615 (0x1207)   0x90            PGS             spa (Spanish)           5271,641                61                      40 203 980      227 656
00002.M2TS      4616 (0x1208)   0x90            PGS             spa (Spanish)           5271,641                57                      37 574 970      213 343
00002.M2TS      4617 (0x1209)   0x90            PGS             jpn (Japanese)          5271,641                39                      25 686 139      148 387
00002.M2TS      4618 (0x120A)   0x90            PGS             swe (Swedish)           5271,641                52                      34 414 829      195 739
00002.M2TS      4619 (0x120B)   0x90            PGS             hin (Hindi)             5271,641                46                      30 171 145      173 120
[/code]

QUICK SUMMARY:
Disc Title: IRON_MAIDEN_EN_VIVO_HDCLUB
Disc Size: 49 526 409 264 bytes
Protection: AACS
BD-Java: No
Playlist: 00002.MPLS
Size: 18 761 324 544 bytes
Length: 1:27:51
Total Bitrate: 28,47 Mbps
Video: MPEG-4 AVC Video / 21508 kbps / 1080p / 23,976 fps / 16:9 / High Profile 4.1
Audio: English / DTS-HD Master Audio / 5.1 / 48 kHz / 2537 kbps / 16-bit (DTS Core: 5.1 / 48 kHz / 1509 kbps / 16-bit)
Audio: English / Dolby Digital Audio / 5.1 / 48 kHz / 448 kbps
Audio: English / LPCM Audio / 2.0 / 48 kHz / 1536 kbps / 16-bit
Subtitle: English / 64,031 kbps
Subtitle: Dutch / 57,770 kbps
Subtitle: French / 64,832 kbps
Subtitle: German / 65,537 kbps
Subtitle: Hindi / 45,786 kbps
Subtitle: Italian / 56,442 kbps
Subtitle: Japanese / 38,979 kbps
Subtitle: Portuguese / 61,342 kbps
Subtitle: Portuguese / 58,365 kbps
Subtitle: Spanish / 61,011 kbps
Subtitle: Spanish / 57,021 kbps
Subtitle: Swedish / 52,226 kbps
********************
PLAYLIST: 00000.MPLS
********************

[code]
Total   Video
Title                                                           Codec   Length  Movie Size      Disc Size       Bitrate Bitrate Main Audio Track                          Secondary Audio Track
-----                                                           ------  ------- --------------  --------------  ------- ------- ------------------                        ---------------------
00000.MPLS                                                      AVC     0:06:07 1 225 273 344   49 526 409 264  26,65   22,99   LPCM 2.0 1536Kbps (48kHz/16-bit)
[/code]
[code]
DISC INFO:
Disc Title:     IRON_MAIDEN_EN_VIVO_HDCLUB
Disc Size:      49 526 409 264 bytes
Protection:     AACS
BD-Java:        No
BDInfo:         0.5.6
PLAYLIST REPORT:
Name:                   00000.MPLS
Length:                 0:06:07 (h:m:s)
Size:                   1 225 273 344 bytes
Total Bitrate:          26,65 Mbps
VIDEO:
Codec                   Bitrate             Description
-----                   -------             -----------
MPEG-4 AVC Video        22990 kbps          1080i / 29,970 fps / 16:9 / High Profile 4.1
AUDIO:
Codec                           Language        Bitrate         Description
-----                           --------        -------         -----------
LPCM Audio                      English         1536 kbps       2.0 / 48 kHz / 1536 kbps / 16-bit
SUBTITLES:
Codec                           Language        Bitrate         Description
-----                           --------        -------         -----------
Presentation Graphics           English         64,963 kbps
Presentation Graphics           Dutch           49,098 kbps
Presentation Graphics           French          65,656 kbps
Presentation Graphics           German          56,887 kbps
Presentation Graphics           Hindi           46,375 kbps
Presentation Graphics           Italian         59,817 kbps
Presentation Graphics           Japanese        37,496 kbps
Presentation Graphics           Portuguese      64,380 kbps
Presentation Graphics           Portuguese      60,434 kbps
Presentation Graphics           Spanish         61,552 kbps
Presentation Graphics           Spanish         60,716 kbps
Presentation Graphics           Swedish         52,844 kbps
FILES:
Name            Time In         Length          Size            Total Bitrate
----            -------         ------          ----            -------------
00000.M2TS      0:00:00.000     0:06:07.767     1 225 273 344   26 653
CHAPTERS:
Number          Time In         Length          Avg Video Rate  Max 1-Sec Rate  Max 1-Sec Time  Max 5-Sec Rate  Max 5-Sec Time  Max 10Sec Rate  Max 10Sec Time  Avg Frame Size  Max Frame Size  Max Frame Time
------          -------         ------          --------------  --------------  --------------  --------------  --------------  --------------  --------------  --------------  --------------  --------------
1               0:00:00.000     0:06:07.767     22 990 kbps     48 898 kbps     00:03:22.702    43 886 kbps     00:03:40.587    40 885 kbps     00:03:40.587    95 887 bytes    576 314 bytes   00:00:39.406
STREAM DIAGNOSTICS:
File            PID             Type            Codec           Language                Seconds                 Bitrate                 Bytes           Packets
----            ---             ----            -----           --------                --------------          --------------          -------------   -----
00000.M2TS      4113 (0x1011)   0x1B            AVC                                     367,701                 22 994                  1 056 866 470   5 750 293
00000.M2TS      4352 (0x1100)   0x80            LPCM            eng (English)           367,701                 1 543                   70 906 056      441 324
00000.M2TS      4608 (0x1200)   0x90            PGS             eng (English)           367,701                 65                      2 986 394       16 899
00000.M2TS      4609 (0x1201)   0x90            PGS             fra (French)            367,701                 66                      3 018 263       17 073
00000.M2TS      4610 (0x1202)   0x90            PGS             deu (German)            367,701                 57                      2 615 164       14 796
00000.M2TS      4611 (0x1203)   0x90            PGS             ita (Italian)           367,701                 60                      2 749 855       15 612
00000.M2TS      4612 (0x1204)   0x90            PGS             nld (Dutch)             367,701                 49                      2 257 103       12 745
00000.M2TS      4613 (0x1205)   0x90            PGS             por (Portuguese)        367,701                 64                      2 959 590       16 752
00000.M2TS      4614 (0x1206)   0x90            PGS             por (Portuguese)        367,701                 60                      2 778 204       15 764
00000.M2TS      4615 (0x1207)   0x90            PGS             spa (Spanish)           367,701                 62                      2 829 623       16 062
00000.M2TS      4616 (0x1208)   0x90            PGS             spa (Spanish)           367,701                 61                      2 791 174       15 838
00000.M2TS      4617 (0x1209)   0x90            PGS             jpn (Japanese)          367,701                 38                      1 723 709       10 042
00000.M2TS      4618 (0x120A)   0x90            PGS             swe (Swedish)           367,701                 53                      2 429 309       13 836
00000.M2TS      4619 (0x120B)   0x90            PGS             hin (Hindi)             367,701                 46                      2 131 884       12 272
[/code]

QUICK SUMMARY:
Disc Title: IRON_MAIDEN_EN_VIVO_HDCLUB
Disc Size: 49 526 409 264 bytes
Protection: AACS
BD-Java: No
Playlist: 00000.MPLS
Size: 1 225 273 344 bytes
Length: 0:06:07
Total Bitrate: 26,65 Mbps
Video: MPEG-4 AVC Video / 22990 kbps / 1080i / 29,970 fps / 16:9 / High Profile 4.1
Audio: English / LPCM Audio / 2.0 / 48 kHz / 1536 kbps / 16-bit
Subtitle: English / 64,963 kbps
Subtitle: Dutch / 49,098 kbps
Subtitle: French / 65,656 kbps
Subtitle: German / 56,887 kbps
Subtitle: Hindi / 46,375 kbps
Subtitle: Italian / 59,817 kbps
Subtitle: Japanese / 37,496 kbps
Subtitle: Portuguese / 64,380 kbps
Subtitle: Portuguese / 60,434 kbps
Subtitle: Spanish / 61,552 kbps
Subtitle: Spanish / 60,716 kbps
Subtitle: Swedish / 52,844 kbps
********************
PLAYLIST: 00001.MPLS
********************

[code]
Total   Video
Title                                                           Codec   Length  Movie Size      Disc Size       Bitrate Bitrate Main Audio Track                          Secondary Audio Track
-----                                                           ------  ------- --------------  --------------  ------- ------- ------------------                        ---------------------
00001.MPLS                                                      AVC     0:05:01 1 004 863 488   49 526 409 264  26,66   23,55   LPCM 2.0 1536Kbps (48kHz/16-bit)
[/code]
[code]
DISC INFO:
Disc Title:     IRON_MAIDEN_EN_VIVO_HDCLUB
Disc Size:      49 526 409 264 bytes
Protection:     AACS
BD-Java:        No
BDInfo:         0.5.6
PLAYLIST REPORT:
Name:                   00001.MPLS
Length:                 0:05:01 (h:m:s)
Size:                   1 004 863 488 bytes
Total Bitrate:          26,66 Mbps
VIDEO:
Codec                   Bitrate             Description
-----                   -------             -----------
MPEG-4 AVC Video        23554 kbps          1080i / 29,970 fps / 16:9 / High Profile 4.1
AUDIO:
Codec                           Language        Bitrate         Description
-----                           --------        -------         -----------
LPCM Audio                      English         1536 kbps       2.0 / 48 kHz / 1536 kbps / 16-bit
SUBTITLES:
Codec                           Language        Bitrate         Description
-----                           --------        -------         -----------
Presentation Graphics           English         8,115 kbps
Presentation Graphics           Dutch           8,992 kbps
Presentation Graphics           French          9,023 kbps
Presentation Graphics           German          9,828 kbps
Presentation Graphics           Hindi           5,547 kbps
Presentation Graphics           Italian         8,531 kbps
Presentation Graphics           Japanese        5,623 kbps
Presentation Graphics           Portuguese      9,184 kbps
Presentation Graphics           Portuguese      8,269 kbps
Presentation Graphics           Spanish         8,778 kbps
Presentation Graphics           Spanish         8,401 kbps
Presentation Graphics           Swedish         7,868 kbps
FILES:
Name            Time In         Length          Size            Total Bitrate
----            -------         ------          ----            -------------
00001.M2TS      0:00:00.000     0:05:01.534     1 004 863 488   26 660
CHAPTERS:
Number          Time In         Length          Avg Video Rate  Max 1-Sec Rate  Max 1-Sec Time  Max 5-Sec Rate  Max 5-Sec Time  Max 10Sec Rate  Max 10Sec Time  Avg Frame Size  Max Frame Size  Max Frame Time
------          -------         ------          --------------  --------------  --------------  --------------  --------------  --------------  --------------  --------------  --------------  --------------
1               0:00:00.000     0:05:01.534     23 554 kbps     51 502 kbps     00:01:02.662    41 654 kbps     00:01:01.961    38 082 kbps     00:00:56.656    98 241 bytes    549 059 bytes   00:01:06.065
STREAM DIAGNOSTICS:
File            PID             Type            Codec           Language                Seconds                 Bitrate                 Bytes           Packets
----            ---             ----            -----           --------                --------------          --------------          -------------   -----
00001.M2TS      4113 (0x1011)   0x1B            AVC                                     301,434                 23 562                  887 806 102     4 830 286
00001.M2TS      4352 (0x1100)   0x80            LPCM            eng (English)           301,434                 1 585                   59 725 584      371 736
00001.M2TS      4608 (0x1200)   0x90            PGS             eng (English)           301,434                 8                       305 871         1 757
00001.M2TS      4609 (0x1201)   0x90            PGS             fra (French)            301,434                 9                       340 082         1 944
00001.M2TS      4610 (0x1202)   0x90            PGS             deu (German)            301,434                 10                      370 421         2 106
00001.M2TS      4611 (0x1203)   0x90            PGS             ita (Italian)           301,434                 9                       321 537         1 842
00001.M2TS      4612 (0x1204)   0x90            PGS             nld (Dutch)             301,434                 9                       338 926         1 937
00001.M2TS      4613 (0x1205)   0x90            PGS             por (Portuguese)        301,434                 9                       346 165         1 976
00001.M2TS      4614 (0x1206)   0x90            PGS             por (Portuguese)        301,434                 8                       311 658         1 788
00001.M2TS      4615 (0x1207)   0x90            PGS             spa (Spanish)           301,434                 9                       330 870         1 894
00001.M2TS      4616 (0x1208)   0x90            PGS             spa (Spanish)           301,434                 8                       316 633         1 813
00001.M2TS      4617 (0x1209)   0x90            PGS             jpn (Japanese)          301,434                 6                       211 959         1 248
00001.M2TS      4618 (0x120A)   0x90            PGS             swe (Swedish)           301,434                 8                       296 555         1 706
00001.M2TS      4619 (0x120B)   0x90            PGS             hin (Hindi)             301,434                 6                       209 075         1 232
[/code]

QUICK SUMMARY:
Disc Title: IRON_MAIDEN_EN_VIVO_HDCLUB
Disc Size: 49 526 409 264 bytes
Protection: AACS
BD-Java: No
Playlist: 00001.MPLS
Size: 1 004 863 488 bytes
Length: 0:05:01
Total Bitrate: 26,66 Mbps
Video: MPEG-4 AVC Video / 23554 kbps / 1080i / 29,970 fps / 16:9 / High Profile 4.1
Audio: English / LPCM Audio / 2.0 / 48 kHz / 1536 kbps / 16-bit
Subtitle: English / 8,115 kbps
Subtitle: Dutch / 8,992 kbps
Subtitle: French / 9,023 kbps
Subtitle: German / 9,828 kbps
Subtitle: Hindi / 5,547 kbps
Subtitle: Italian / 8,531 kbps
Subtitle: Japanese / 5,623 kbps
Subtitle: Portuguese / 9,184 kbps
Subtitle: Portuguese / 8,269 kbps
Subtitle: Spanish / 8,778 kbps
Subtitle: Spanish / 8,401 kbps
Subtitle: Swedish / 7,868 kbps
********************
PLAYLIST: 00003.MPLS
********************

[code]
Total   Video
Title                                                           Codec   Length  Movie Size      Disc Size       Bitrate Bitrate Main Audio Track                          Secondary Audio Track
-----                                                           ------  ------- --------------  --------------  ------- ------- ------------------                        ---------------------
00003.MPLS                                                      AVC     0:04:39 903 383 040     49 526 409 264  25,90   22,97   LPCM 2.0 1536Kbps (48kHz/16-bit)
[/code]
[code]
DISC INFO:
Disc Title:     IRON_MAIDEN_EN_VIVO_HDCLUB
Disc Size:      49 526 409 264 bytes
Protection:     AACS
BD-Java:        No
BDInfo:         0.5.6
PLAYLIST REPORT:
Name:                   00003.MPLS
Length:                 0:04:39 (h:m:s)
Size:                   903 383 040 bytes
Total Bitrate:          25,90 Mbps
VIDEO:
Codec                   Bitrate             Description
-----                   -------             -----------
MPEG-4 AVC Video        22975 kbps          1080i / 29,970 fps / 16:9 / High Profile 4.1
AUDIO:
Codec                           Language        Bitrate         Description
-----                           --------        -------         -----------
LPCM Audio                      English         1536 kbps       2.0 / 48 kHz / 1536 kbps / 16-bit
FILES:
Name            Time In         Length          Size            Total Bitrate
----            -------         ------          ----            -------------
00003.M2TS      0:00:00.000     0:04:39.078     903 383 040     25 896
CHAPTERS:
Number          Time In         Length          Avg Video Rate  Max 1-Sec Rate  Max 1-Sec Time  Max 5-Sec Rate  Max 5-Sec Time  Max 10Sec Rate  Max 10Sec Time  Avg Frame Size  Max Frame Size  Max Frame Time
------          -------         ------          --------------  --------------  --------------  --------------  --------------  --------------  --------------  --------------  --------------  --------------
1               0:00:00.000     0:04:39.078     22 975 kbps     59 920 kbps     00:00:55.055    42 124 kbps     00:04:06.446    37 428 kbps     00:04:06.212    95 823 bytes    776 067 bytes   00:03:37.917
STREAM DIAGNOSTICS:
File            PID             Type            Codec           Language                Seconds                 Bitrate                 Bytes           Packets
----            ---             ----            -----           --------                --------------          --------------          -------------   -----
00003.M2TS      4113 (0x1011)   0x1B            AVC                                     278,945                 22 986                  801 465 754     4 360 845
00003.M2TS      4352 (0x1100)   0x80            LPCM            eng (English)           278,945                 1 543                   53 806 624      334 896
[/code]

QUICK SUMMARY:
Disc Title: IRON_MAIDEN_EN_VIVO_HDCLUB
Disc Size: 49 526 409 264 bytes
Protection: AACS
BD-Java: No
Playlist: 00003.MPLS
Size: 903 383 040 bytes
Length: 0:04:39
Total Bitrate: 25,90 Mbps
Video: MPEG-4 AVC Video / 22975 kbps / 1080i / 29,970 fps / 16:9 / High Profile 4.1
Audio: English / LPCM Audio / 2.0 / 48 kHz / 1536 kbps / 16-bit
Download

Скачать (бесплатно и на максимальной скорости)!

Как скачивать  ·   Что такое torrent (торрент)  ·   Рейтинг и ограничения

Сайт не распространяет и не хранит электронные версии произведений, а лишь предоставляет доступ к создаваемому пользователями каталогу ссылок на торрент-файлы, которые содержат только списки хеш-сумм


 
Показать сообщения:    
Ответить на тему

Текущее время: 22-Ноя 10:05

Часовой пояс: GMT + 3



Вы не можете начинать темы
Вы не можете отвечать на сообщения
Вы не можете редактировать свои сообщения
Вы не можете удалять свои сообщения
Вы не можете голосовать в опросах
Вы не можете прикреплять файлы к сообщениям
Вы не можете скачивать файлы



В начало страницы  •