Loading...
Error
Регистрация  · 
Имя: Пароль:    
 ·  Забыли пароль?
Правила пользования ресурсом

Обладатель VIP статуса на 24 часа: ВасяПечкин
стань следующим читай правила
Сегодня идет свободное скачивание без начисления скачанного

(rock 'n' roll, Blues, Rock) Жанна Агузарова и Браво - Лучшее 1983—1988 - 1993, DTS Upmix, 1411 kbps

Ответить на тему
 
Автор Сообщение

cataman


post 16-Фев-2012 09:31

 

Жанна Агузарова и Браво - Лучшее 1983—1988


Страна: Россия
Жанр: rock 'n' roll, Blues, Rock
Год выпуска: 1993
Формат: DTS Upmix
Битрейт аудио: 1411 kbps
Продолжительность: 00:42:16

Трэклист

01 Открытие
02 Желтые ботинки
03 Медицинский институт
04 Старый отель
05 Звездный каталог
06 Кошки
07 Синеглазый мальчик
08 Верю я
09 Ленинградский рок-н-ролл
10 Розы
11 Как быть
12 Молодость
13 Будь со мной
14 В чем дело-

Код:

Общее
Полное имя                               : H:\Multichannel Music\Aguzarova_Bravo_Best_1983-1988_DTS-CD\(01) [Жанна Агузарова и 'Браво'] Открытие.wav
Формат                                   : Wave
Размер файла                             : 18,4 Мбайт
Продолжительность                        : 1 м. 49 с.
Режим общего битрейта                    : Постоянный
Общий поток                              : 1411 Кбит/сек

Аудио
Идентификатор                            : 0
Формат                                   : DTS
Формат/Информация                        : Digital Theater Systems
Параметр Endianness формата              : Little
Режим смешивания                         : LE / 14
Идентификатор кодека                     : 1
Продолжительность                        : 1 м. 49 с.
Вид битрейта                             : Постоянный
Битрейт                                  : 1411,2 Кбит/сек
Каналы                                   : 6 каналов
Расположение каналов                     : Front: L C R, Side: L R, LFE
Частота                                  : 44,1 КГц
Битовая глубина                          : 24 бит
Метод сжатия                             : С потерями
Размер потока                            : 18,4 Мбайт (100%)

Общее
Полное имя                               : H:\Multichannel Music\Aguzarova_Bravo_Best_1983-1988_DTS-CD\(02) [Жанна Агузарова и 'Браво'] Желтые ботинки.wav
Формат                                   : Wave
Размер файла                             : 34,9 Мбайт
Продолжительность                        : 3 м. 27 с.
Режим общего битрейта                    : Постоянный
Общий поток                              : 1411 Кбит/сек

Аудио
Идентификатор                            : 0
Формат                                   : DTS
Формат/Информация                        : Digital Theater Systems
Параметр Endianness формата              : Little
Режим смешивания                         : LE / 14
Идентификатор кодека                     : 1
Продолжительность                        : 3 м. 27 с.
Вид битрейта                             : Постоянный
Битрейт                                  : 1411,2 Кбит/сек
Каналы                                   : 6 каналов
Расположение каналов                     : Front: L C R, Side: L R, LFE
Частота                                  : 44,1 КГц
Битовая глубина                          : 24 бит
Метод сжатия                             : С потерями
Размер потока                            : 34,9 Мбайт (100%)

Общее
Полное имя                               : H:\Multichannel Music\Aguzarova_Bravo_Best_1983-1988_DTS-CD\(03) [Жанна Агузарова и 'Браво'] Медицинский институт.wav
Формат                                   : Wave
Размер файла                             : 25,7 Мбайт
Продолжительность                        : 2 м. 32 с.
Режим общего битрейта                    : Постоянный
Общий поток                              : 1411 Кбит/сек

Аудио
Идентификатор                            : 0
Формат                                   : DTS
Формат/Информация                        : Digital Theater Systems
Параметр Endianness формата              : Little
Режим смешивания                         : LE / 14
Идентификатор кодека                     : 1
Продолжительность                        : 2 м. 32 с.
Вид битрейта                             : Постоянный
Битрейт                                  : 1411,2 Кбит/сек
Каналы                                   : 6 каналов
Расположение каналов                     : Front: L C R, Side: L R, LFE
Частота                                  : 44,1 КГц
Битовая глубина                          : 24 бит
Метод сжатия                             : С потерями
Размер потока                            : 25,7 Мбайт (100%)

Общее
Полное имя                               : H:\Multichannel Music\Aguzarova_Bravo_Best_1983-1988_DTS-CD\(04) [Жанна Агузарова и 'Браво'] Старый отель.wav
Формат                                   : Wave
Размер файла                             : 39,2 Мбайт
Продолжительность                        : 3 м. 53 с.
Режим общего битрейта                    : Постоянный
Общий поток                              : 1411 Кбит/сек

Аудио
Идентификатор                            : 0
Формат                                   : DTS
Формат/Информация                        : Digital Theater Systems
Параметр Endianness формата              : Little
Режим смешивания                         : LE / 14
Идентификатор кодека                     : 1
Продолжительность                        : 3 м. 53 с.
Вид битрейта                             : Постоянный
Битрейт                                  : 1411,2 Кбит/сек
Каналы                                   : 6 каналов
Расположение каналов                     : Front: L C R, Side: L R, LFE
Частота                                  : 44,1 КГц
Битовая глубина                          : 24 бит
Метод сжатия                             : С потерями
Размер потока                            : 39,2 Мбайт (100%)

Общее
Полное имя                               : H:\Multichannel Music\Aguzarova_Bravo_Best_1983-1988_DTS-CD\(05) [Жанна Агузарова и 'Браво'] Звездный каталог.wav
Формат                                   : Wave
Размер файла                             : 46,0 Мбайт
Продолжительность                        : 4 м. 33 с.
Режим общего битрейта                    : Постоянный
Общий поток                              : 1411 Кбит/сек

Аудио
Идентификатор                            : 0
Формат                                   : DTS
Формат/Информация                        : Digital Theater Systems
Параметр Endianness формата              : Little
Режим смешивания                         : LE / 14
Идентификатор кодека                     : 1
Продолжительность                        : 4 м. 33 с.
Вид битрейта                             : Постоянный
Битрейт                                  : 1411,2 Кбит/сек
Каналы                                   : 6 каналов
Расположение каналов                     : Front: L C R, Side: L R, LFE
Частота                                  : 44,1 КГц
Битовая глубина                          : 24 бит
Метод сжатия                             : С потерями
Размер потока                            : 46,0 Мбайт (100%)

Общее
Полное имя                               : H:\Multichannel Music\Aguzarova_Bravo_Best_1983-1988_DTS-CD\(06) [Жанна Агузарова и 'Браво'] Кошки.wav
Формат                                   : Wave
Размер файла                             : 28,5 Мбайт
Продолжительность                        : 2 м. 49 с.
Режим общего битрейта                    : Постоянный
Общий поток                              : 1411 Кбит/сек

Аудио
Идентификатор                            : 0
Формат                                   : DTS
Формат/Информация                        : Digital Theater Systems
Параметр Endianness формата              : Little
Режим смешивания                         : LE / 14
Идентификатор кодека                     : 1
Продолжительность                        : 2 м. 49 с.
Вид битрейта                             : Постоянный
Битрейт                                  : 1411,2 Кбит/сек
Каналы                                   : 6 каналов
Расположение каналов                     : Front: L C R, Side: L R, LFE
Частота                                  : 44,1 КГц
Битовая глубина                          : 24 бит
Метод сжатия                             : С потерями
Размер потока                            : 28,5 Мбайт (100%)

Общее
Полное имя                               : H:\Multichannel Music\Aguzarova_Bravo_Best_1983-1988_DTS-CD\(07) [Жанна Агузарова и 'Браво'] Синеглазый мальчик.wav
Формат                                   : Wave
Размер файла                             : 27,8 Мбайт
Продолжительность                        : 2 м. 45 с.
Режим общего битрейта                    : Постоянный
Общий поток                              : 1411 Кбит/сек

Аудио
Идентификатор                            : 0
Формат                                   : DTS
Формат/Информация                        : Digital Theater Systems
Параметр Endianness формата              : Little
Режим смешивания                         : LE / 14
Идентификатор кодека                     : 1
Продолжительность                        : 2 м. 45 с.
Вид битрейта                             : Постоянный
Битрейт                                  : 1411,2 Кбит/сек
Каналы                                   : 6 каналов
Расположение каналов                     : Front: L C R, Side: L R, LFE
Частота                                  : 44,1 КГц
Битовая глубина                          : 24 бит
Метод сжатия                             : С потерями
Размер потока                            : 27,8 Мбайт (100%)

Общее
Полное имя                               : H:\Multichannel Music\Aguzarova_Bravo_Best_1983-1988_DTS-CD\(08) [Жанна Агузарова и 'Браво'] Верю я.wav
Формат                                   : Wave
Размер файла                             : 30,6 Мбайт
Продолжительность                        : 3 м. 1 с.
Режим общего битрейта                    : Постоянный
Общий поток                              : 1411 Кбит/сек

Аудио
Идентификатор                            : 0
Формат                                   : DTS
Формат/Информация                        : Digital Theater Systems
Параметр Endianness формата              : Little
Режим смешивания                         : LE / 14
Идентификатор кодека                     : 1
Продолжительность                        : 3 м. 1 с.
Вид битрейта                             : Постоянный
Битрейт                                  : 1411,2 Кбит/сек
Каналы                                   : 6 каналов
Расположение каналов                     : Front: L C R, Side: L R, LFE
Частота                                  : 44,1 КГц
Битовая глубина                          : 24 бит
Метод сжатия                             : С потерями
Размер потока                            : 30,6 Мбайт (100%)

Общее
Полное имя                               : H:\Multichannel Music\Aguzarova_Bravo_Best_1983-1988_DTS-CD\(09) [Жанна Агузарова и 'Браво'] Ленинградский рок-н-ролл.wav
Формат                                   : Wave
Размер файла                             : 23,6 Мбайт
Продолжительность                        : 2 м. 20 с.
Режим общего битрейта                    : Постоянный
Общий поток                              : 1411 Кбит/сек

Аудио
Идентификатор                            : 0
Формат                                   : DTS
Формат/Информация                        : Digital Theater Systems
Параметр Endianness формата              : Little
Режим смешивания                         : LE / 14
Идентификатор кодека                     : 1
Продолжительность                        : 2 м. 20 с.
Вид битрейта                             : Постоянный
Битрейт                                  : 1411,2 Кбит/сек
Каналы                                   : 6 каналов
Расположение каналов                     : Front: L C R, Side: L R, LFE
Частота                                  : 44,1 КГц
Битовая глубина                          : 24 бит
Метод сжатия                             : С потерями
Размер потока                            : 23,6 Мбайт (100%)

Общее
Полное имя                               : H:\Multichannel Music\Aguzarova_Bravo_Best_1983-1988_DTS-CD\(10) [Жанна Агузарова и 'Браво'] Розы.wav
Формат                                   : Wave
Размер файла                             : 30,5 Мбайт
Продолжительность                        : 3 м. 1 с.
Режим общего битрейта                    : Постоянный
Общий поток                              : 1411 Кбит/сек

Аудио
Идентификатор                            : 0
Формат                                   : DTS
Формат/Информация                        : Digital Theater Systems
Параметр Endianness формата              : Little
Режим смешивания                         : LE / 14
Идентификатор кодека                     : 1
Продолжительность                        : 3 м. 1 с.
Вид битрейта                             : Постоянный
Битрейт                                  : 1411,2 Кбит/сек
Каналы                                   : 6 каналов
Расположение каналов                     : Front: L C R, Side: L R, LFE
Частота                                  : 44,1 КГц
Битовая глубина                          : 24 бит
Метод сжатия                             : С потерями
Размер потока                            : 30,5 Мбайт (100%)

Общее
Полное имя                               : H:\Multichannel Music\Aguzarova_Bravo_Best_1983-1988_DTS-CD\(11) [Жанна Агузарова и 'Браво'] Как быть.wav
Формат                                   : Wave
Размер файла                             : 33,9 Мбайт
Продолжительность                        : 3 м. 21 с.
Режим общего битрейта                    : Постоянный
Общий поток                              : 1411 Кбит/сек

Аудио
Идентификатор                            : 0
Формат                                   : DTS
Формат/Информация                        : Digital Theater Systems
Параметр Endianness формата              : Little
Режим смешивания                         : LE / 14
Идентификатор кодека                     : 1
Продолжительность                        : 3 м. 21 с.
Вид битрейта                             : Постоянный
Битрейт                                  : 1411,2 Кбит/сек
Каналы                                   : 6 каналов
Расположение каналов                     : Front: L C R, Side: L R, LFE
Частота                                  : 44,1 КГц
Битовая глубина                          : 24 бит
Метод сжатия                             : С потерями
Размер потока                            : 33,9 Мбайт (100%)

Общее
Полное имя                               : H:\Multichannel Music\Aguzarova_Bravo_Best_1983-1988_DTS-CD\(12) [Жанна Агузарова и 'Браво'] Молодость.wav
Формат                                   : Wave
Размер файла                             : 24,6 Мбайт
Продолжительность                        : 2 м. 26 с.
Режим общего битрейта                    : Постоянный
Общий поток                              : 1411 Кбит/сек

Аудио
Идентификатор                            : 0
Формат                                   : DTS
Формат/Информация                        : Digital Theater Systems
Параметр Endianness формата              : Little
Режим смешивания                         : LE / 14
Идентификатор кодека                     : 1
Продолжительность                        : 2 м. 26 с.
Вид битрейта                             : Постоянный
Битрейт                                  : 1411,2 Кбит/сек
Каналы                                   : 6 каналов
Расположение каналов                     : Front: L C R, Side: L R, LFE
Частота                                  : 44,1 КГц
Битовая глубина                          : 24 бит
Метод сжатия                             : С потерями
Размер потока                            : 24,6 Мбайт (100%)

Общее
Полное имя                               : H:\Multichannel Music\Aguzarova_Bravo_Best_1983-1988_DTS-CD\(13) [Жанна Агузарова и 'Браво'] Будь со мной.wav
Формат                                   : Wave
Размер файла                             : 28,6 Мбайт
Продолжительность                        : 2 м. 49 с.
Режим общего битрейта                    : Постоянный
Общий поток                              : 1411 Кбит/сек

Аудио
Идентификатор                            : 0
Формат                                   : DTS
Формат/Информация                        : Digital Theater Systems
Параметр Endianness формата              : Little
Режим смешивания                         : LE / 14
Идентификатор кодека                     : 1
Продолжительность                        : 2 м. 49 с.
Вид битрейта                             : Постоянный
Битрейт                                  : 1411,2 Кбит/сек
Каналы                                   : 6 каналов
Расположение каналов                     : Front: L C R, Side: L R, LFE
Частота                                  : 44,1 КГц
Битовая глубина                          : 24 бит
Метод сжатия                             : С потерями
Размер потока                            : 28,6 Мбайт (100%)

Общее
Полное имя                               : H:\Multichannel Music\Aguzarova_Bravo_Best_1983-1988_DTS-CD\(14) [Жанна Агузарова и 'Браво'] В чем дело-.wav
Формат                                   : Wave
Размер файла                             : 34,4 Мбайт
Продолжительность                        : 3 м. 24 с.
Режим общего битрейта                    : Постоянный
Общий поток                              : 1411 Кбит/сек

Аудио
Идентификатор                            : 0
Формат                                   : DTS
Формат/Информация                        : Digital Theater Systems
Параметр Endianness формата              : Little
Режим смешивания                         : LE / 14
Идентификатор кодека                     : 1
Продолжительность                        : 3 м. 24 с.
Вид битрейта                             : Постоянный
Битрейт                                  : 1411,2 Кбит/сек
Каналы                                   : 6 каналов
Расположение каналов                     : Front: L C R, Side: L R, LFE
Частота                                  : 44,1 КГц
Битовая глубина                          : 24 бит
Метод сжатия                             : С потерями
Размер потока                            : 34,4 Мбайт (100%)

Download

Скачать (бесплатно и на максимальной скорости)!

Как скачивать  ·   Что такое torrent (торрент)  ·   Рейтинг и ограничения

Сайт не распространяет и не хранит электронные версии произведений, а лишь предоставляет доступ к создаваемому пользователями каталогу ссылок на торрент-файлы, которые содержат только списки хеш-сумм


 
Показать сообщения:    
Ответить на тему

Текущее время: 13-Окт 23:57

Часовой пояс: GMT + 3



Вы не можете начинать темы
Вы не можете отвечать на сообщения
Вы не можете редактировать свои сообщения
Вы не можете удалять свои сообщения
Вы не можете голосовать в опросах
Вы не можете прикреплять файлы к сообщениям
Вы не можете скачивать файлы



В начало страницы  •