Loading...
Error
Регистрация  · 
Имя: Пароль:    
 ·  Забыли пароль?
Правила пользования ресурсом

Обладатель VIP статуса на 24 часа:
стань следующим читай правила
Сегодня идет свободное скачивание без начисления скачанного

(Rock) Гарик Сукачев и Неприкасаемые - Grand Collection - 2002, DTS Upmix, 1411 kbps

Ответить на тему
 
Автор Сообщение

cataman


post 15-Фев-2012 19:11

 

Гарик Сукачев и Неприкасаемые - Grand Collection


Страна: Россия
Жанр: Rock
Год выпуска: 2002
Формат: DTS Upmix
Битрейт аудио: 1411 kbps
Продолжительность: 1:17:09

Трэклист:

01 Моя бабушка курит трубку
02 Свободу Анджеле Дэвис!
03 За окошком месяц май
04 Знаю я, есть края...
05 Ольга
06 Я милого узнаю по походке
07 Белый колпак
08 Прощай, мой друг
09 Дорожная
10 10 000 километров
11 Брёл, брёл, брёл
12 Напои меня водой
13 Города, где дымится асфальт
14 Песня вольного стрелка (Белла Чао!)
15 Нулевой километр

Код:

Общее
Полное имя                               : H:\Multichannel Music\Гарик Сукачев - Grand Collection 2002 DTSCD Upmix\(01) [Гарик Сукачев и Неприкасаемые] Моя бабушка курит трубку.wav
Формат                                   : Wave
Размер файла                             : 60,8 Мбайт
Продолжительность                        : 6 м. 1 с.
Режим общего битрейта                    : Постоянный
Общий поток                              : 1411 Кбит/сек

Аудио
Идентификатор                            : 0
Формат                                   : DTS
Формат/Информация                        : Digital Theater Systems
Параметр Endianness формата              : Little
Режим смешивания                         : LE / 14
Идентификатор кодека                     : 1
Продолжительность                        : 6 м. 1 с.
Вид битрейта                             : Постоянный
Битрейт                                  : 1411,2 Кбит/сек
Каналы                                   : 6 каналов
Расположение каналов                     : Front: L C R, Side: L R, LFE
Частота                                  : 44,1 КГц
Битовая глубина                          : 24 бит
Метод сжатия                             : С потерями
Размер потока                            : 60,8 Мбайт (100%)

Общее
Полное имя                               : H:\Multichannel Music\Гарик Сукачев - Grand Collection 2002 DTSCD Upmix\(02) [Гарик Сукачев и Неприкасаемые] Свободу Анджеле Дэвис!.wav
Формат                                   : Wave
Размер файла                             : 44,1 Мбайт
Продолжительность                        : 4 м. 21 с.
Режим общего битрейта                    : Постоянный
Общий поток                              : 1411 Кбит/сек

Аудио
Идентификатор                            : 0
Формат                                   : DTS
Формат/Информация                        : Digital Theater Systems
Параметр Endianness формата              : Little
Режим смешивания                         : LE / 14
Идентификатор кодека                     : 1
Продолжительность                        : 4 м. 21 с.
Вид битрейта                             : Постоянный
Битрейт                                  : 1411,2 Кбит/сек
Каналы                                   : 6 каналов
Расположение каналов                     : Front: L C R, Side: L R, LFE
Частота                                  : 44,1 КГц
Битовая глубина                          : 24 бит
Метод сжатия                             : С потерями
Размер потока                            : 44,1 Мбайт (100%)

Общее
Полное имя                               : H:\Multichannel Music\Гарик Сукачев - Grand Collection 2002 DTSCD Upmix\(03) [Гарик Сукачев и Неприкасаемые] За окошком месяц май.wav
Формат                                   : Wave
Размер файла                             : 41,6 Мбайт
Продолжительность                        : 4 м. 7 с.
Режим общего битрейта                    : Постоянный
Общий поток                              : 1411 Кбит/сек

Аудио
Идентификатор                            : 0
Формат                                   : DTS
Формат/Информация                        : Digital Theater Systems
Параметр Endianness формата              : Little
Режим смешивания                         : LE / 14
Идентификатор кодека                     : 1
Продолжительность                        : 4 м. 7 с.
Вид битрейта                             : Постоянный
Битрейт                                  : 1411,2 Кбит/сек
Каналы                                   : 6 каналов
Расположение каналов                     : Front: L C R, Side: L R, LFE
Частота                                  : 44,1 КГц
Битовая глубина                          : 24 бит
Метод сжатия                             : С потерями
Размер потока                            : 41,6 Мбайт (100%)

Общее
Полное имя                               : H:\Multichannel Music\Гарик Сукачев - Grand Collection 2002 DTSCD Upmix\(04) [Гарик Сукачев и Неприкасаемые] Знаю я, есть края....wav
Формат                                   : Wave
Размер файла                             : 44,6 Мбайт
Продолжительность                        : 4 м. 24 с.
Режим общего битрейта                    : Постоянный
Общий поток                              : 1411 Кбит/сек

Аудио
Идентификатор                            : 0
Формат                                   : DTS
Формат/Информация                        : Digital Theater Systems
Параметр Endianness формата              : Little
Режим смешивания                         : LE / 14
Идентификатор кодека                     : 1
Продолжительность                        : 4 м. 24 с.
Вид битрейта                             : Постоянный
Битрейт                                  : 1411,2 Кбит/сек
Каналы                                   : 6 каналов
Расположение каналов                     : Front: L C R, Side: L R, LFE
Частота                                  : 44,1 КГц
Битовая глубина                          : 24 бит
Метод сжатия                             : С потерями
Размер потока                            : 44,6 Мбайт (100%)

Общее
Полное имя                               : H:\Multichannel Music\Гарик Сукачев - Grand Collection 2002 DTSCD Upmix\(05) [Гарик Сукачев и Неприкасаемые] Ольга.wav
Формат                                   : Wave
Размер файла                             : 50,3 Мбайт
Продолжительность                        : 4 м. 59 с.
Режим общего битрейта                    : Постоянный
Общий поток                              : 1411 Кбит/сек

Аудио
Идентификатор                            : 0
Формат                                   : DTS
Формат/Информация                        : Digital Theater Systems
Параметр Endianness формата              : Little
Режим смешивания                         : LE / 14
Идентификатор кодека                     : 1
Продолжительность                        : 4 м. 59 с.
Вид битрейта                             : Постоянный
Битрейт                                  : 1411,2 Кбит/сек
Каналы                                   : 6 каналов
Расположение каналов                     : Front: L C R, Side: L R, LFE
Частота                                  : 44,1 КГц
Битовая глубина                          : 24 бит
Метод сжатия                             : С потерями
Размер потока                            : 50,3 Мбайт (100%)

Общее
Полное имя                               : H:\Multichannel Music\Гарик Сукачев - Grand Collection 2002 DTSCD Upmix\(06) [Гарик Сукачев и Неприкасаемые] Я милого узнаю по походке.wav
Формат                                   : Wave
Размер файла                             : 35,8 Мбайт
Продолжительность                        : 3 м. 33 с.
Режим общего битрейта                    : Постоянный
Общий поток                              : 1411 Кбит/сек

Аудио
Идентификатор                            : 0
Формат                                   : DTS
Формат/Информация                        : Digital Theater Systems
Параметр Endianness формата              : Little
Режим смешивания                         : LE / 14
Идентификатор кодека                     : 1
Продолжительность                        : 3 м. 33 с.
Вид битрейта                             : Постоянный
Битрейт                                  : 1411,2 Кбит/сек
Каналы                                   : 6 каналов
Расположение каналов                     : Front: L C R, Side: L R, LFE
Частота                                  : 44,1 КГц
Битовая глубина                          : 24 бит
Метод сжатия                             : С потерями
Размер потока                            : 35,8 Мбайт (100%)

Общее
Полное имя                               : H:\Multichannel Music\Гарик Сукачев - Grand Collection 2002 DTSCD Upmix\(07) [Гарик Сукачев и Неприкасаемые] Белый колпак.wav
Формат                                   : Wave
Размер файла                             : 55,5 Мбайт
Продолжительность                        : 5 м. 30 с.
Режим общего битрейта                    : Постоянный
Общий поток                              : 1411 Кбит/сек

Аудио
Идентификатор                            : 0
Формат                                   : DTS
Формат/Информация                        : Digital Theater Systems
Параметр Endianness формата              : Little
Режим смешивания                         : LE / 14
Идентификатор кодека                     : 1
Продолжительность                        : 5 м. 30 с.
Вид битрейта                             : Постоянный
Битрейт                                  : 1411,2 Кбит/сек
Каналы                                   : 6 каналов
Расположение каналов                     : Front: L C R, Side: L R, LFE
Частота                                  : 44,1 КГц
Битовая глубина                          : 24 бит
Метод сжатия                             : С потерями
Размер потока                            : 55,5 Мбайт (100%)

Общее
Полное имя                               : H:\Multichannel Music\Гарик Сукачев - Grand Collection 2002 DTSCD Upmix\(08) [Гарик Сукачев и Неприкасаемые] Прощай, мой друг.wav
Формат                                   : Wave
Размер файла                             : 53,0 Мбайт
Продолжительность                        : 5 м. 15 с.
Режим общего битрейта                    : Постоянный
Общий поток                              : 1411 Кбит/сек

Аудио
Идентификатор                            : 0
Формат                                   : DTS
Формат/Информация                        : Digital Theater Systems
Параметр Endianness формата              : Little
Режим смешивания                         : LE / 14
Идентификатор кодека                     : 1
Продолжительность                        : 5 м. 15 с.
Вид битрейта                             : Постоянный
Битрейт                                  : 1411,2 Кбит/сек
Каналы                                   : 6 каналов
Расположение каналов                     : Front: L C R, Side: L R, LFE
Частота                                  : 44,1 КГц
Битовая глубина                          : 24 бит
Метод сжатия                             : С потерями
Размер потока                            : 53,0 Мбайт (100%)

Общее
Полное имя                               : H:\Multichannel Music\Гарик Сукачев - Grand Collection 2002 DTSCD Upmix\(09) [Гарик Сукачев и Неприкасаемые] Дорожная.wav
Формат                                   : Wave
Размер файла                             : 38,7 Мбайт
Продолжительность                        : 3 м. 49 с.
Режим общего битрейта                    : Постоянный
Общий поток                              : 1411 Кбит/сек

Аудио
Идентификатор                            : 0
Формат                                   : DTS
Формат/Информация                        : Digital Theater Systems
Параметр Endianness формата              : Little
Режим смешивания                         : LE / 14
Идентификатор кодека                     : 1
Продолжительность                        : 3 м. 49 с.
Вид битрейта                             : Постоянный
Битрейт                                  : 1411,2 Кбит/сек
Каналы                                   : 6 каналов
Расположение каналов                     : Front: L C R, Side: L R, LFE
Частота                                  : 44,1 КГц
Битовая глубина                          : 24 бит
Метод сжатия                             : С потерями
Размер потока                            : 38,7 Мбайт (100%)

Общее
Полное имя                               : H:\Multichannel Music\Гарик Сукачев - Grand Collection 2002 DTSCD Upmix\(10) [Гарик Сукачев и Неприкасаемые] 10 000 километров.wav
Формат                                   : Wave
Размер файла                             : 54,3 Мбайт
Продолжительность                        : 5 м. 22 с.
Режим общего битрейта                    : Постоянный
Общий поток                              : 1411 Кбит/сек

Аудио
Идентификатор                            : 0
Формат                                   : DTS
Формат/Информация                        : Digital Theater Systems
Параметр Endianness формата              : Little
Режим смешивания                         : LE / 14
Идентификатор кодека                     : 1
Продолжительность                        : 5 м. 22 с.
Вид битрейта                             : Постоянный
Битрейт                                  : 1411,2 Кбит/сек
Каналы                                   : 6 каналов
Расположение каналов                     : Front: L C R, Side: L R, LFE
Частота                                  : 44,1 КГц
Битовая глубина                          : 24 бит
Метод сжатия                             : С потерями
Размер потока                            : 54,3 Мбайт (100%)

Общее
Полное имя                               : H:\Multichannel Music\Гарик Сукачев - Grand Collection 2002 DTSCD Upmix\(11) [Гарик Сукачев и Неприкасаемые] Брёл, брёл, брёл.wav
Формат                                   : Wave
Размер файла                             : 57,4 Мбайт
Продолжительность                        : 5 м. 40 с.
Режим общего битрейта                    : Постоянный
Общий поток                              : 1411 Кбит/сек

Аудио
Идентификатор                            : 0
Формат                                   : DTS
Формат/Информация                        : Digital Theater Systems
Параметр Endianness формата              : Little
Режим смешивания                         : LE / 14
Идентификатор кодека                     : 1
Продолжительность                        : 5 м. 40 с.
Вид битрейта                             : Постоянный
Битрейт                                  : 1411,2 Кбит/сек
Каналы                                   : 6 каналов
Расположение каналов                     : Front: L C R, Side: L R, LFE
Частота                                  : 44,1 КГц
Битовая глубина                          : 24 бит
Метод сжатия                             : С потерями
Размер потока                            : 57,4 Мбайт (100%)

Общее
Полное имя                               : H:\Multichannel Music\Гарик Сукачев - Grand Collection 2002 DTSCD Upmix\(12) [Гарик Сукачев и Неприкасаемые] Напои меня водой.wav
Формат                                   : Wave
Размер файла                             : 76,2 Мбайт
Продолжительность                        : 7 м. 32 с.
Режим общего битрейта                    : Постоянный
Общий поток                              : 1411 Кбит/сек

Аудио
Идентификатор                            : 0
Формат                                   : DTS
Формат/Информация                        : Digital Theater Systems
Параметр Endianness формата              : Little
Режим смешивания                         : LE / 14
Идентификатор кодека                     : 1
Продолжительность                        : 7 м. 32 с.
Вид битрейта                             : Постоянный
Битрейт                                  : 1411,2 Кбит/сек
Каналы                                   : 6 каналов
Расположение каналов                     : Front: L C R, Side: L R, LFE
Частота                                  : 44,1 КГц
Битовая глубина                          : 24 бит
Метод сжатия                             : С потерями
Размер потока                            : 76,2 Мбайт (100%)

Общее
Полное имя                               : H:\Multichannel Music\Гарик Сукачев - Grand Collection 2002 DTSCD Upmix\(13) [Гарик Сукачев и Неприкасаемые] Города, где дымится асфальт.wav
Формат                                   : Wave
Размер файла                             : 62,0 Мбайт
Продолжительность                        : 6 м. 8 с.
Режим общего битрейта                    : Постоянный
Общий поток                              : 1411 Кбит/сек

Аудио
Идентификатор                            : 0
Формат                                   : DTS
Формат/Информация                        : Digital Theater Systems
Параметр Endianness формата              : Little
Режим смешивания                         : LE / 14
Идентификатор кодека                     : 1
Продолжительность                        : 6 м. 8 с.
Вид битрейта                             : Постоянный
Битрейт                                  : 1411,2 Кбит/сек
Каналы                                   : 6 каналов
Расположение каналов                     : Front: L C R, Side: L R, LFE
Частота                                  : 44,1 КГц
Битовая глубина                          : 24 бит
Метод сжатия                             : С потерями
Размер потока                            : 62,0 Мбайт (100%)

Общее
Полное имя                               : H:\Multichannel Music\Гарик Сукачев - Grand Collection 2002 DTSCD Upmix\(14) [Гарик Сукачев и Неприкасаемые] Песня вольного стрелка (Белла Чао!).wav
Формат                                   : Wave
Размер файла                             : 48,6 Мбайт
Продолжительность                        : 4 м. 48 с.
Режим общего битрейта                    : Постоянный
Общий поток                              : 1411 Кбит/сек

Аудио
Идентификатор                            : 0
Формат                                   : DTS
Формат/Информация                        : Digital Theater Systems
Параметр Endianness формата              : Little
Режим смешивания                         : LE / 14
Идентификатор кодека                     : 1
Продолжительность                        : 4 м. 48 с.
Вид битрейта                             : Постоянный
Битрейт                                  : 1411,2 Кбит/сек
Каналы                                   : 6 каналов
Расположение каналов                     : Front: L C R, Side: L R, LFE
Частота                                  : 44,1 КГц
Битовая глубина                          : 24 бит
Метод сжатия                             : С потерями
Размер потока                            : 48,6 Мбайт (100%)

Общее
Полное имя                               : H:\Multichannel Music\Гарик Сукачев - Grand Collection 2002 DTSCD Upmix\(15) [Гарик Сукачев и Неприкасаемые] Нулевой километр.wav
Формат                                   : Wave
Размер файла                             : 55,9 Мбайт
Продолжительность                        : 5 м. 32 с.
Режим общего битрейта                    : Постоянный
Общий поток                              : 1411 Кбит/сек

Аудио
Идентификатор                            : 0
Формат                                   : DTS
Формат/Информация                        : Digital Theater Systems
Параметр Endianness формата              : Little
Режим смешивания                         : LE / 14
Идентификатор кодека                     : 1
Продолжительность                        : 5 м. 32 с.
Вид битрейта                             : Постоянный
Битрейт                                  : 1411,2 Кбит/сек
Каналы                                   : 6 каналов
Расположение каналов                     : Front: L C R, Side: L R, LFE
Частота                                  : 44,1 КГц
Битовая глубина                          : 24 бит
Метод сжатия                             : С потерями
Размер потока                            : 55,9 Мбайт (100%)

Общее
Полное имя                               : H:\Multichannel Music\Гарик Сукачев - Grand Collection 2002 DTSCD Upmix\back.jpg
Формат                                   : JPEG
Размер файла                             : 52,3 Кбайт

Изображения
Формат                                   : JPEG
Ширина                                   : 500 пикселей
Высота                                   : 449 пикселей
Субдискретизация насыщенности            : 4:2:0
Битовая глубина                          : 8 бит
Метод сжатия                             : С потерями

Общее
Полное имя                               : H:\Multichannel Music\Гарик Сукачев - Grand Collection 2002 DTSCD Upmix\front.jpg
Формат                                   : JPEG
Размер файла                             : 34,9 Кбайт

Изображения
Формат                                   : JPEG
Ширина                                   : 399 пикселей
Высота                                   : 400 пикселей
Субдискретизация насыщенности            : 4:2:0
Битовая глубина                          : 8 бит
Метод сжатия                             : С потерями
Download

Скачать (бесплатно и на максимальной скорости)!

Как скачивать  ·   Что такое torrent (торрент)  ·   Рейтинг и ограничения

Сайт не распространяет и не хранит электронные версии произведений, а лишь предоставляет доступ к создаваемому пользователями каталогу ссылок на торрент-файлы, которые содержат только списки хеш-сумм


 
Показать сообщения:    
Ответить на тему

Текущее время: 19-Окт 21:22

Часовой пояс: GMT + 3



Вы не можете начинать темы
Вы не можете отвечать на сообщения
Вы не можете редактировать свои сообщения
Вы не можете удалять свои сообщения
Вы не можете голосовать в опросах
Вы не можете прикреплять файлы к сообщениям
Вы не можете скачивать файлы



В начало страницы  •