Loading...
Error
Регистрация  · 
Имя: Пароль:    
 ·  Забыли пароль?
Правила пользования ресурсом

Сегодня идет свободное скачивание без начисления скачанного

(Russian Rock) Машина времени - Это было так давно (Запись 1978) 2LP - 1993, iso.wv, lossless

Ответить на тему
 
Автор Сообщение

korobok


post 05-Янв-2011 19:20

 

Машина времени - Это было так давно (Запись 1978) 2LP


Страна: Россия
Жанр: Russian Rock
Год выпуска: 1993
Издатель: Sintez Records; Ritonis / SP02-0015/16
Формат: iso.wv
Битрейт аудио: lossless
Продолжительность: 01:23:49

Диски редкие. Присутствует местами песочек, но в пределах комфортного прослушивания. Запись старая 1978 год, неремастированная - со всеми вытекающими (сибилянты местами так-же никуда не делись)
01. Избавление (3:02)
02. День рождения (4:03)
03. Посвящение хорошему знакомому (3:05)
04. Ты и я (4:55)
05. Девятый вал (4:41)
06. Полный штиль (3:41)
07. Марионетки (4:12)
08. Маски (4:27)
09. Флаг над замком (3:17)
10. Гимн забору (2:39)
11. Самая тихая песня (1:19)
REM GENRE Russian Rock
REM DATE 1993
REM DISCID SP02-0015
REM COMMENT Sintez Records; Ritonis; SP02-0015; Needledrop By Oleg39
PERFORMER "Машина времени"
TITLE "Это было так давно LP1"
FILE "Mashina vremeni - 1993 - Eto bylo tak davno LP1 [NL. Needldrop 24-192 by Oleg39].wv" WAVE
TRACK 01 AUDIO
TITLE "Избавление"
PERFORMER "Машина времени"
INDEX 01 00:00:00
TRACK 02 AUDIO
TITLE "День рождения"
PERFORMER "Машина времени"
INDEX 01 03:01:42
TRACK 03 AUDIO
TITLE "Посвящение хорошему знакомому"
PERFORMER "Машина времени"
INDEX 01 07:04:25
TRACK 04 AUDIO
TITLE "Ты и я"
PERFORMER "Машина времени"
INDEX 01 10:09:04
TRACK 05 AUDIO
TITLE "Девятый вал"
PERFORMER "Машина времени"
INDEX 01 15:03:69
TRACK 06 AUDIO
TITLE "Полный штиль"
PERFORMER "Машина времени"
INDEX 01 19:44:63
TRACK 07 AUDIO
TITLE "Марионетки"
PERFORMER "Машина времени"
INDEX 01 23:25:34
TRACK 08 AUDIO
TITLE "Маски"
PERFORMER "Машина времени"
INDEX 01 27:37:06
TRACK 09 AUDIO
TITLE "Флаг над замком"
PERFORMER "Машина времени"
INDEX 01 32:03:70
TRACK 10 AUDIO
TITLE "Гимн забору"
PERFORMER "Машина времени"
INDEX 01 35:21:22
TRACK 11 AUDIO
TITLE "Самая тихая песня"
PERFORMER "Машина времени"
INDEX 01 38:00:00
01. Белый день (4:37)
02. День гнева (1:59)
03. Песня о капитане (4:04)
04. Песня о скрипаче, который играл на танцах (2:04)
05. Наш дом (3:53)
06. Солдат (1:55)
07. Посвящение Стиви Уондеру (4:33)
08. Блюз о безусловном вреде пьянства (3:52)
09. Шок (3:02)
10. Люди в лодках (3:16)
11. Снег (2:13)
12. Это было так давно (6:22)
13. Необычайно грустная песня, или телега (2:40)
REM GENRE Russian Rock
REM DATE 1993
REM DISCID SP02-0016
REM COMMENT Sintez Records; Ritonis; SP02-0016; Needledrop By Oleg39
PERFORMER "Машина времени"
TITLE "Это было так давно LP2"
FILE "Mashina vremeni - 1993 - Eto bylo tak davno LP2 [NL. Needldrop 24-192 by Oleg39].wv" WAVE
TRACK 01 AUDIO
TITLE "Белый день"
PERFORMER "Машина времени"
INDEX 01 00:00:00
TRACK 02 AUDIO
TITLE "День гнева"
PERFORMER "Машина времени"
INDEX 01 04:37:25
TRACK 03 AUDIO
TITLE "Песня о капитане"
PERFORMER "Машина времени"
INDEX 01 06:36:36
TRACK 04 AUDIO
TITLE "Песня о скрипаче, который играл на танцах"
PERFORMER "Машина времени"
INDEX 01 10:40:25
TRACK 05 AUDIO
TITLE "Наш дом"
PERFORMER "Машина времени"
INDEX 01 12:44:18
TRACK 06 AUDIO
TITLE "Солдат"
PERFORMER "Машина времени"
INDEX 01 16:37:27
TRACK 07 AUDIO
TITLE "Посвящение Стиви Уондеру"
PERFORMER "Машина времени"
INDEX 01 18:32:00
TRACK 08 AUDIO
TITLE "Блюз о безусловном вреде пьянства"
PERFORMER "Машина времени"
INDEX 01 23:04:42
TRACK 09 AUDIO
TITLE "Шок"
PERFORMER "Машина времени"
INDEX 01 26:56:27
TRACK 10 AUDIO
TITLE "Люди в лодках"
PERFORMER "Машина времени"
INDEX 01 29:57:73
TRACK 11 AUDIO
TITLE "Снег"
PERFORMER "Машина времени"
INDEX 01 33:14:27
TRACK 12 AUDIO
TITLE "Это было так давно"
PERFORMER "Машина времени"
INDEX 01 35:27:50
TRACK 13 AUDIO
TITLE "Необычайно грустная песня, или телега"
PERFORMER "Машина времени"
INDEX 01 41:49:63
Класс состояния винила: NM
Устройство воспроизведения: Thorens TD124 mkII + SME 3012 Series II
ГЗМ: Van den Hul Colibri XGW
Фонокорректор: Yamaha A1 (Class A)
АЦП: E-MU 0404 USB (ASIO)

Программа-оцифровщик: WaveLab
Обработка: Сжатие в wv - Monkey's Audio 4.01, Теги - CUEBeautifier 0.4.31.2
Формат оцифровки: 24bit/192kHz
Формат раздачи: 24bit/192kHz
Доп. информация: Родной выпуск Sintez Records - Ritonis Riga press.
Все благодарности уходят к Oleg39
Download

Скачать (бесплатно и на максимальной скорости)!

Как скачивать  ·   Что такое torrent (торрент)  ·   Рейтинг и ограничения

Сайт не распространяет и не хранит электронные версии произведений, а лишь предоставляет доступ к создаваемому пользователями каталогу ссылок на торрент-файлы, которые содержат только списки хеш-сумм


 

korobok


post 06-Янв-2011 22:18

 

Извините за низкую скорость, какие-то проблемы, вечером скорость инета падает почти до нуля, локальные ресурсы просто летают. На форуме провайдера куча недовольных высказываний, и, главное, никто не может вразумительного сказать, когда это закончится.
 

korobok


post 09-Янв-2011 07:20

 

Заколебался ждать, когда раздастся. Перезалил торрент-файл, просьба перекачать его заново, ничего не менял, так что должно перехешироваться нормально.
 
Показать сообщения:    
Ответить на тему

Текущее время: 17-Дек 20:33

Часовой пояс: GMT + 3



Вы не можете начинать темы
Вы не можете отвечать на сообщения
Вы не можете редактировать свои сообщения
Вы не можете удалять свои сообщения
Вы не можете голосовать в опросах
Вы не можете прикреплять файлы к сообщениям
Вы не можете скачивать файлы



В начало страницы  •