Loading...
Error
Регистрация  · 
Имя: Пароль:    
 ·  Забыли пароль?
Правила пользования ресурсом

Обладатель VIP статуса на 24 часа: sidleibl
стань следующим читай правила
Сегодня идет свободное скачивание без начисления скачанного

Капитан Марвел / Captain Marvel (Анна Боден, Райан Флек) [2019 г., фантастика, боевик, приключения, BDRip 720p] [Android] | DUB

Ответить на тему
 
Автор Сообщение

Theseus


post 29-Май-2019 19:05

 

Капитан Марвел / Captain Marvel

Год выхода: 2019
Страна: США
Жанр: фантастика, боевик, приключения
Продолжительность: 02:03:42
Перевод: Профессиональный (полное дублирование) | Невафильм
Субтитры: Отсутствуют
Режиссер: Анна Боден, Райан Флек
В ролях: Бри Ларсон, Сэмюэл Л. Джексон, Бен Мендельсон, Джуд Лоу, Аннетт Бенинг, Лашана Линч, Кларк Грегг, Рюн Темт, Джемма Чан, Альхенис Перес Сото, Джимон Хонсу, Ли Пейс, Чуку Моду, Мэттью Мехер, Акира Акбар, Марк Догерти, Стивен А. Чанг
О фильме: После столкновения с враждующими инопланетными расами пилот военно-воздушных сил Кэрол Дэнверс обретает суперсилу и становится неуязвимой. Героине предстоит совладать со своими новыми способностями, чтобы противостоять могущественному врагу.

Качество: BDRip 720p
Формат: MP4
Видео кодек: x.264
Аудио кодек: AAC
Видео: AVC, 1280x536 (2.40:1), 23.976 fps, 1 200 kb/s
Аудио: AAC, 48.0 kHz, 2 ch, 128 kb/s [Звук с онлайн кинотеатра]
Рекламы нет

Код:

General
Complete name                            : Captain.Marvel.2019.BDRip.720p.[Theseus].mp4
Format                                   : MPEG-4
Format profile                           : Base Media
Codec ID                                 : isom (isom/iso2/avc1/mp41)
File size                                : 1.15 GiB
Duration                                 : 2 h 3 min
Overall bit rate                         : 1 334 kb/s
Encoded date                             : UTC 2019-05-29 14:58:41
Tagged date                              : UTC 2019-05-29 14:58:41
Writing application                      : Lavf58.22.100

Video
ID                                       : 1
Format                                   : AVC
Format/Info                              : Advanced Video Codec
Format profile                           : [email protected]
Format settings                          : CABAC / 12 Ref Frames
Format settings, CABAC                   : Yes
Format settings, ReFrames                : 12 frames
Codec ID                                 : avc1
Codec ID/Info                            : Advanced Video Coding
Duration                                 : 2 h 3 min
Bit rate                                 : 1 200 kb/s
Width                                    : 1 280 pixels
Height                                   : 536 pixels
Display aspect ratio                     : 2.40:1
Frame rate mode                          : Variable
Frame rate                               : 23.976 FPS
Minimum frame rate                       : 23.810 FPS
Maximum frame rate                       : 24.390 FPS
Color space                              : YUV
Chroma subsampling                       : 4:2:0
Bit depth                                : 8 bits
Scan type                                : Progressive
Bits/(Pixel*Frame)                       : 0.073
Stream size                              : 1.04 GiB (90%)
Writing library                          : x264 core 157 r2935 545de2f
Encoding settings                        : cabac=1 / ref=12 / deblock=1:-1:-1 / analyse=0x3:0x133 / me=umh / subme=10 / psy=1 / psy_rd=1.00:0.10 / mixed_ref=1 / me_range=24 / chroma_me=1 / trellis=2 / 8x8dct=1 / cqm=0 / deadzone=21,11 / fast_pskip=1 / chroma_qp_offset=-3 / threads=17 / lookahead_threads=2 / sliced_threads=0 / nr=0 / decimate=1 / interlaced=0 / bluray_compat=0 / constrained_intra=0 / bframes=8 / b_pyramid=2 / b_adapt=2 / b_bias=0 / direct=3 / weightb=1 / open_gop=0 / weightp=2 / keyint=250 / keyint_min=23 / scenecut=40 / intra_refresh=0 / rc_lookahead=60 / rc=2pass / mbtree=1 / bitrate=1200 / ratetol=1.0 / qcomp=0.60 / qpmin=0 / qpmax=69 / qpstep=4 / cplxblur=20.0 / qblur=0.5 / ip_ratio=1.40 / aq=1:1.00
Encoded date                             : UTC 2019-05-29 14:58:41
Tagged date                              : UTC 2019-05-29 14:58:41
Codec configuration box                  : avcC

Audio
ID                                       : 2
Format                                   : AAC LC SBR
Format/Info                              : Advanced Audio Codec Low Complexity with Spectral Band Replication
Commercial name                          : HE-AAC
Format settings                          : NBC
Codec ID                                 : mp4a-40-5
Duration                                 : 2 h 3 min
Duration_LastFrame                       : -33 ms
Bit rate mode                            : Constant
Bit rate                                 : 128 kb/s
Channel(s)                               : 2 channels
Channel layout                           : L R
Sampling rate                            : 48.0 kHz
Frame rate                               : 23.438 FPS (2048 SPF)
Compression mode                         : Lossy
Stream size                              : 113 MiB (10%)
Language                                 : Russian
Default                                  : Yes
Alternate group                          : 1
Encoded date                             : UTC 2019-05-29 14:58:41
Tagged date                              : UTC 2019-05-29 14:58:41


Download

Скачать (бесплатно и на максимальной скорости)!

Как скачивать  ·   Что такое torrent (торрент)  ·   Рейтинг и ограничения

Сайт не распространяет и не хранит электронные версии произведений, а лишь предоставляет доступ к создаваемому пользователями каталогу ссылок на торрент-файлы, которые содержат только списки хеш-сумм


 
Показать сообщения:    
Ответить на тему

Текущее время: 26-Июн 17:41

Часовой пояс: GMT + 3



Вы не можете начинать темы
Вы не можете отвечать на сообщения
Вы не можете редактировать свои сообщения
Вы не можете удалять свои сообщения
Вы не можете голосовать в опросах
Вы не можете прикреплять файлы к сообщениям
Вы не можете скачивать файлы



В начало страницы  •