Loading...
Error
Регистрация  · 
Имя: Пароль:    
 ·  Забыли пароль?
Правила пользования ресурсом

Сегодня идет свободное скачивание без начисления скачанного

(Melodic Hard Rock) The Radio Sun - Unstoppable - 2017 [FLAC, image +.cue, lossless]

Ответить на тему
 
Автор Сообщение

sergej644


post 07-Янв-2018 19:38

 


The Radio Sun - Unstoppable


Год издания: 2017
Страна: Australia
Жанр: Melodic Hard Rock
Продолжительность: 00:44:43
Лейбл издания: Pride & Joy Music
Страна-выпуска диска: Germany
Номер по каталогу: PJM10797
Формат: FLAC
Битрейт аудио: Lossless
Тип рипа: image +.cue
Наличие сканов в содержимом раздачи: да

01. Heaven On Earth (3:45)
02. Only You (3:35)
03. You've Got The Touch (3:21)
04. Tonight's The Night (4:42)
05. Surrender Your Heart (4:01)
06. Dreams Should Last Forever (3:47)
07. Set The Night On Fire (3:47)
08. Why Must I (5:05)
09. Unstoppable (4:31)
10. 10 Whenever You Want (4:10)
11. You're Everything To Me (3:58)

Код:

Exact Audio Copy V1.1 from 23. June 2015

EAC extraction logfile from 11. November 2017, 7:22

The Radio Sun  / Unstoppable (PJM10797)

Used drive  : TSSTcorpDVDWBD SH-B123L   Adapter: 0  ID: 4

Read mode               : Secure
Utilize accurate stream : Yes
Defeat audio cache      : Yes
Make use of C2 pointers : No

Read offset correction                      : 6
Overread into Lead-In and Lead-Out          : No
Fill up missing offset samples with silence : Yes
Delete leading and trailing silent blocks   : No
Null samples used in CRC calculations       : Yes
Used interface                              : Installed external ASPI interface

Used output format              : User Defined Encoder
Selected bitrate                : 768 kBit/s
Quality                         : High
Add ID3 tag                     : No
Command line compressor         : C:\Program Files (x86)\Exact Audio Copy\FLAC\FLAC.EXE
Additional command line options : -6 -V -T "ARTIST=%artist%" -T "TITLE=%title%" -T "ALBUM=%albumtitle%" -T "DATE=%year%" -T "TRACKNUMBER=%tracknr%" -T "GENRE=%genre%" -T "COMMENT=%comment%" -T "BAND=%albuminterpret%" -T "ALBUMARTIST=%albuminterpret%" -T "COMPOSER=%composer%" %haslyrics%--tag-from-file=LYRICS="%lyricsfile%"%haslyrics% -T "DISCNUMBER=%cdnumber%" -T "TOTALDISCS=%totalcds%" -T "TOTALTRACKS=%numtracks%" %hascover%--picture="%coverfile%"%hascover% %source% -o %dest%

TOC of the extracted CD

     Track |   Start  |  Length  | Start sector | End sector
    ---------------------------------------------------------
        1  |  0:00.00 |  3:45.21 |         0    |    16895
        2  |  3:45.21 |  3:35.25 |     16896    |    33045
        3  |  7:20.46 |  3:20.59 |     33046    |    48104
        4  | 10:41.30 |  4:41.57 |     48105    |    69236
        5  | 15:23.12 |  4:01.37 |     69237    |    87348
        6  | 19:24.49 |  3:46.56 |     87349    |   104354
        7  | 23:11.30 |  3:46.38 |    104355    |   121342
        8  | 26:57.68 |  5:05.25 |    121343    |   144242
        9  | 32:03.18 |  4:31.28 |    144243    |   164595
       10  | 36:34.46 |  4:09.44 |    164596    |   183314
       11  | 40:44.15 |  3:58.32 |    183315    |   201196

Range status and errors

Selected range

     Filename E:\MUSIC\The Radio Sun  - Unstoppable (PJM10797).wav

     Peak level 99.6 %
     Extraction speed 3.5 X
     Range quality 100.0 %
     Test CRC 3FE08736
     Copy CRC 3FE08736
     Copy OK

No errors occurred

AccurateRip summary

Track  1  not present in database
Track  2  not present in database
Track  3  not present in database
Track  4  not present in database
Track  5  not present in database
Track  6  not present in database
Track  7  not present in database
Track  8  not present in database
Track  9  not present in database
Track 10  not present in database
Track 11  not present in database

None of the tracks are present in the AccurateRip database

End of status report

Код:

REM GENRE AOR
REM DATE 2017
REM DISCID 960A7A0B
REM COMMENT "ExactAudioCopy v1.1"
PERFORMER "The Radio Sun "
TITLE "Unstoppable (PJM10797)"
FILE "The Radio Sun  - Unstoppable (PJM10797).flac" WAVE
  TRACK 01 AUDIO
    TITLE "1  Heaven On Earth  "
    PERFORMER "The Radio Sun "
    INDEX 01 00:00:00
  TRACK 02 AUDIO
    TITLE "2  Only You  "
    PERFORMER "The Radio Sun "
    INDEX 01 03:45:21
  TRACK 03 AUDIO
    TITLE "3  You've Got The Touch  "
    PERFORMER "The Radio Sun "
    INDEX 01 07:20:46
  TRACK 04 AUDIO
    TITLE "4  Tonight's The Night  "
    PERFORMER "The Radio Sun "
    INDEX 01 10:41:30
  TRACK 05 AUDIO
    TITLE "5  Surrender Your Heart  "
    PERFORMER "The Radio Sun "
    INDEX 01 15:23:12
  TRACK 06 AUDIO
    TITLE "6  Dreams Should Last Forever  "
    PERFORMER "The Radio Sun "
    INDEX 01 19:24:49
  TRACK 07 AUDIO
    TITLE "7  Set The Night On Fire  "
    PERFORMER "The Radio Sun "
    INDEX 01 23:11:30
  TRACK 08 AUDIO
    TITLE "8  Why Must I  "
    PERFORMER "The Radio Sun "
    INDEX 01 26:57:68
  TRACK 09 AUDIO
    TITLE "9  Unstoppable  "
    PERFORMER "The Radio Sun "
    INDEX 01 32:03:18
  TRACK 10 AUDIO
    TITLE "10  Whenever You Want  "
    PERFORMER "The Radio Sun "
    INDEX 01 36:34:46
  TRACK 11 AUDIO
    TITLE "11  You're Everything To Me"
    PERFORMER "The Radio Sun "
    INDEX 01 40:44:15


Download

Скачать (бесплатно и на максимальной скорости)!

Как скачивать  ·   Что такое torrent (торрент)  ·   Рейтинг и ограничения

Сайт не распространяет и не хранит электронные версии произведений, а лишь предоставляет доступ к создаваемому пользователями каталогу ссылок на торрент-файлы, которые содержат только списки хеш-сумм


 
Показать сообщения:    
Ответить на тему

Текущее время: 19-Янв 00:51

Часовой пояс: GMT + 3



Вы не можете начинать темы
Вы не можете отвечать на сообщения
Вы не можете редактировать свои сообщения
Вы не можете удалять свои сообщения
Вы не можете голосовать в опросах
Вы не можете прикреплять файлы к сообщениям
Вы не можете скачивать файлы



В начало страницы  •