Loading...
Error
Регистрация  · 
Имя: Пароль:    
 ·  Забыли пароль?
Правила пользования ресурсом

Обладатель VIP статуса на 24 часа: nikola120
стань следующим читай правила
Сегодня идет свободное скачивание без начисления скачанного

BBC: Белый медведь - Шпион во льдах / BBC: Polar Bear - Spy on the Ice (Джон Даунер) (Серии 1–2 из 2) [2010 г., документальный, HDRip] VO

Ответить на тему
 
Автор Сообщение

O.S.A.


post 06-Апр-2013 16:57

 



BBC: Белый медведь - Шпион во льдах / BBC: Polar Bear - Spy on the Ice
Режиссерская версия


Год выпуска: 2010
Страна: Великобритания
Студия: BBC, John Downer Productions, Animal Planet
Жанр: документальный
Продолжительность: 2 х ~00:50:00
Перевод: Профессиональный (одноголосый закадровый)
Режиссер: Джон Даунер
В ролях: Дэвид Теннант
Описание: Фильм, снятый большей частью на замаскированные камеры, показывает нам самого большого наземного хищника в мире ближе, чем когда-либо. Камера-айсберг, камера-буран и камера-снежок - представители нового поколения скрытых устройств, применяемых для исследования норвежского полярного архипелага Шпицберген. Вместе с камерой-поплавком и камерой-снежок эти камеры, замаскированные по последнему слову техники, демонстрируют нам удивительное любопытство и выдающийся интеллект полярных медведей. Камеры находятся совсем близко, когда из двух зимних материнских берлог на свет появляются медвежата.

Они также запечатлевают момент, когда весной от острова откалываются льдины. В то время, как одна медведица с детенышами путешествует по дрейфующим льдинам в поисках нерп, другое семейство оказывается запертым на острове, где очень мало еды. То, как медведи справляются с этими разными ситуациями, заснято в невероятных подробностях. Камеры также следуют за медведями, когда те охотятся на нерп, нападают на птичьи колонии, ныряют за водорослями и вволю предаются занимательным ритуалам ухаживания. Камере-айсбергу даже удалось заснять их малоизвестное социальное поведение, когда семь медведей делят вылинявшую тушу кита. Часто находясь на расстоянии удара лапой от играющих или дерущихся медведей, скрытые камеры подвергаются одному из самых больших испытаний. Когда любопытные объекты съемки обнаруживают камеры, их первое знакомство хоть и оказывается забавным, но губительно для техники. Фильм, в котором отображены самые сокровенные детали жизни полярных медведей, показывает, как их интеллект и любознательность помогают им выжить в мире исчезающего льда.



Качество: HDRip (Исходник: BDRip 1080p)
Формат: AVI
Видео кодек: XviD
Аудио кодек: MP3
Видео: 720x400 (1.80:1), 25.000 fps, XviD MPEG-4, ~2100 kbps avg, 0.292 bit/pixel
Аудио: 48.0 kHz, MPEG Layer 3, 2 ch, ~192.00 kbps avg
Субтитры: нет

Общее
Полное имя : D:Шпион во льдах1 серия [R.G.RealMT].avi
Формат : AVI
Формат/Информация : Audio Video Interleave
Размер файла : 823 Мбайт
Продолжительность : 50 м.
Общий поток : 2301 Кбит/сек
Программа кодирования : VirtualDubMod 1.5.10.3 | www.virtualdub-fr.org || (build 2550/release)
Библиотека кодирования : VirtualDubMod build 2550/release

Видео
Идентификатор : 0
Формат : MPEG-4 Visual
Профиль формата : Advanced [email protected]
Параметр BVOP формата : 2
Параметр QPel формата : Нет
Параметр GMC формата : Без точки перехода
Параметр матрицы формата : Default (H.263)
Режим смешивания : Сжатый битовый поток
Идентификатор кодека : XVID
Идентификатор кодека/Подсказка : XviD
Продолжительность : 50 м.
Битрейт : 2100 Кбит/сек
Ширина : 720 пикселей
Высота : 400 пикселей
Соотношение сторон : 16:9
Частота кадров : 25,000 кадров/сек
Цветовое пространство : YUV
Субдискретизация насыщенности : 4:2:0
Битовая глубина : 8 бит
Тип развёртки : Прогрессивная
Метод сжатия : С потерями
Бит/(Пиксели*Кадры) : 0.292
Размер потока : 751 Мбайт (91%)
Библиотека кодирования : XviD 1.2.1 (UTC 2008-12-04)

Аудио
Идентификатор : 1
Формат : MPEG Audio
Версия формата : Version 1
Профиль формата : Layer 3
Идентификатор кодека : 55
Идентификатор кодека/Подсказка : MP3
Продолжительность : 50 м.
Вид битрейта : Постоянный
Битрейт : 192 Кбит/сек
Каналы : 2 канала
Частота : 48,0 КГц
Метод сжатия : С потерями
Размер потока : 68,7 Мбайт (8%)
Выравнивание : Соединение по промежуткам
Продолжительность промежутка : 40 мс. (1,00 видеокадр)
Время предзагрузки промежутка : 504 мс.
Библиотека кодирования : LAME3.99r
Настройки программы : -m s -V 4 -q 2 -lowpass 18.6 -b 192
Общее
Полное имя : D:Шпион во льдах2 серия [R.G.RealMT].avi
Формат : AVI
Формат/Информация : Audio Video Interleave
Размер файла : 829 Мбайт
Продолжительность : 50 м.
Общий поток : 2302 Кбит/сек
Программа кодирования : VirtualDubMod 1.5.10.3 | www.virtualdub-fr.org || (build 2550/release)
Библиотека кодирования : VirtualDubMod build 2550/release

Видео
Идентификатор : 0
Формат : MPEG-4 Visual
Профиль формата : Advanced [email protected]
Параметр BVOP формата : 2
Параметр QPel формата : Нет
Параметр GMC формата : Без точки перехода
Параметр матрицы формата : Default (H.263)
Режим смешивания : Сжатый битовый поток
Идентификатор кодека : XVID
Идентификатор кодека/Подсказка : XviD
Продолжительность : 50 м.
Битрейт : 2100 Кбит/сек
Ширина : 720 пикселей
Высота : 400 пикселей
Соотношение сторон : 16:9
Частота кадров : 25,000 кадров/сек
Цветовое пространство : YUV
Субдискретизация насыщенности : 4:2:0
Битовая глубина : 8 бит
Тип развёртки : Прогрессивная
Метод сжатия : С потерями
Бит/(Пиксели*Кадры) : 0.292
Размер потока : 756 Мбайт (91%)
Библиотека кодирования : XviD 1.2.1 (UTC 2008-12-04)

Аудио
Идентификатор : 1
Формат : MPEG Audio
Версия формата : Version 1
Профиль формата : Layer 3
Идентификатор кодека : 55
Идентификатор кодека/Подсказка : MP3
Продолжительность : 50 м.
Вид битрейта : Постоянный
Битрейт : 192 Кбит/сек
Каналы : 2 канала
Частота : 48,0 КГц
Метод сжатия : С потерями
Размер потока : 69,1 Мбайт (8%)
Выравнивание : Соединение по промежуткам
Продолжительность промежутка : 40 мс. (1,00 видеокадр)
Время предзагрузки промежутка : 504 мс.
Библиотека кодирования : LAME3.99r
Настройки программы : -m s -V 4 -q 2 -lowpass 18.6 -b 192


Download

Скачать (бесплатно и на максимальной скорости)!

Как скачивать  ·   Что такое torrent (торрент)  ·   Рейтинг и ограничения

Сайт не распространяет и не хранит электронные версии произведений, а лишь предоставляет доступ к создаваемому пользователями каталогу ссылок на торрент-файлы, которые содержат только списки хеш-сумм


 
Показать сообщения:    
Ответить на тему

Текущее время: 22-Ноя 15:10

Часовой пояс: GMT + 3



Вы не можете начинать темы
Вы не можете отвечать на сообщения
Вы не можете редактировать свои сообщения
Вы не можете удалять свои сообщения
Вы не можете голосовать в опросах
Вы не можете прикреплять файлы к сообщениям
Вы не можете скачивать файлы



В начало страницы  •