Loading...
Error
Регистрация  · 
Имя: Пароль:    
 ·  Забыли пароль?
Правила пользования ресурсом

Обладатель VIP статуса на 24 часа: nikola120
стань следующим читай правила
Сегодня идет свободное скачивание без начисления скачанного

Хеллсинг OVA / Hellsing Ultimate OVA (Токоро Томокадзу)[1-9 из 10][2011 г., приключения, мистерия, ужасы, вампиры, BDRip] [720p] MVO,VO,DVO,RUS(ext), JAP + Sub

Ответить на тему
 
Автор Сообщение

Demetros


post 07-Янв-2013 01:29

 

Хеллсинг OVA / Hellsing Ultimate OVA

Год выпуска: 2010
Страна: Япония
Жанр: приключения, мистерия, ужасы, вампиры
Продолжительность: 9 серий по ~45 мин
Перевод: озвучка, субтитры
Озвучка:
1. Профессиональная (многоголосая, закадровая) от МС Еntertainment [Rus] [1-4]
2. Любительская (одноголосная) от Тимофеев [1-5]
3. Любительская (одноголосная) от Lord Alukard [5-7]
4. Любительская (одноголосная) от Cuba77 [1-7]
5. Любительская (многоголосная) от Opendub [7-9]
6. Любительская (двухголосная) от RG AnimEx [8]
7. Любительская (двухголосная) от Shiza [8-9]
8. Любительская (одноголосная) от loster01 [5-9]
9. Любительская (многоголосная) от UkrDub [8]
10. Профессиональная (многоголосая, закадровая) от QTV [1-4]
11. Оригинал.
Субтитры: Русские:
От МС Еntertainment [1-4]
От Dusker'a [2-9] Украинские:
От HentaiHunter [1]
От ASFAT [2-3]
От Sensetivity aka Я [5, 8-9]
Режиссер: Токоро Томокадзу
Описание: На каждое действие найдётся противодействие – для борьбы с кровожадной нечистью в Великобритании был создан Королевский Орден Протестантских Рыцарей, которому служит древнейший вампир Алукард. Согласно заключённому договору, он подчиняется главе тайной организации «Хеллсинг».
У Ватикана свой козырь – особый Тринадцатый Отдел, организация «Искариот», в составе которой неубиваемый отец Александр. Для них Алукард ничем не отличается от остальных монстров.
Однако всем им придётся на время забыть о дрязгах между католической и англиканской церквями, когда на сцену выйдет могущественный враг из прошлого – загадочный Майор во главе секретной нацистской организации «Миллениум».
Но пока не началась битва за Англию, Алукард занят воспитанием новообращённой вампирши: Виктория Серас раньше служила в полиции, а теперь ей приходится привыкать к жизни в старинном особняке, к своим новым способностям и новым обязанностям. Даже хозяйка Алукарда, леди Интегра, не знает, зачем он обратил эту упрямую девушку...
Вторая экранизация манги Хирано Кота дотошно следует оригиналу, и потому заметно отличается от сериала, ведь именно чёрный юмор, реки крови, харизматичные враги и закрученный конфликт сделали «Хеллсинга» всемирно популярным.
Качество: BDRip
Формат: MKV
Видео кодек: H.264
Аудио кодек: AC3
Видео: x264; 1280x720 (16:9); ~3500 Kbps; 23.976 fps
Аудио:
1. AC3, 640 Kbps, 6 channels, 48.0 KHz [Japanese Original / OpenDub / Ukrdub / loster01] [Вконтейнере / внешняя / внешняя / внешняя]
2. AAC ~256 Kbps; 6 channels, 48,0 KHz [МС Еntertainment / RG AnimEx RUS] (внешним файлом)
3. AAC ~256 Kbps; 6 channels, 48,0 KHz [Тимофеев RUS] (внешним файлом)
4. MP3 192 Kbps; 2 channels, 44,1 KHz [Cuba77 RUS] (внешним файлом)
5. AC3 384 Kbps; 6 channels, 48,0 KHz [Lord Alukard RUS] (внешним файлом)
6. AAC ~256 Kbps; 2 channels, 48,0 KHz [Shiza RUS] (внешним файлом)
7. AC3 384 Kbps; 6 channels, 48,0 KHz [QTV UKR] (внешним файлом)
General
UniqueID : 199320161012173568760992169381252407476 (0x95F3AAAA5159D65681E76ADD7771A0B4)
Complete name : D:\Torrent\Hellsing [BDrip 720p]\Hellsing_Ultimate_OVA_01_[720p].mkv
Format : Matroska
File size : 1.46 GiB
Duration : 50mn 18s
Overall bit rate : 4 145 Kbps
Encoded date : UTC 2011-05-18 13:46:18
Writing application : mkvmerge v4.7.0 ('Just Like You Imagined') зібрано Apr 21 2011 01:13:14
Writing library : libebml v1.2.0 + libmatroska v1.1.0
Video
ID : 1
Format : AVC
Format/Info : Advanced Video Codec
Format profile : [email protected]
Format settings, CABAC : Yes
Format settings, ReFrames : 6 frames
Codec ID : V_MPEG4/ISO/AVC
Duration : 50mn 18s
Bit rate : 3 500 Kbps
Width : 1 280 pixels
Height : 720 pixels
Display aspect ratio : 16:9
Frame rate : 23.976 fps
Color space : YUV
Chroma subsampling : 4:2:0
Bit depth : 8 bits
Scan type : Progressive
Bits/(Pixel*Frame) : 0.158
Stream size : 1.20 GiB (83%)
Title : Sensetivity-raw
Writing library : x264 core 92 r1510 33d382a
Encoding settings : cabac=1 / ref=6 / deblock=1:-2:-2 / analyse=0x3:0x113 / me=umh / subme=9 / psy=1 / psy_rd=0.90:0.00 / mixed_ref=1 / me_range=45 / chroma_me=1 / trellis=2 / 8x8dct=1 / cqm=0 / deadzone=21,11 / fast_pskip=0 / chroma_qp_offset=-4 / threads=3 / sliced_threads=0 / nr=0 / decimate=1 / interlaced=0 / constrained_intra=0 / bframes=10 / b_pyramid=2 / b_adapt=2 / b_bias=0 / direct=3 / wpredb=1 / wpredp=2 / keyint=250 / keyint_min=25 / scenecut=40 / intra_refresh=0 / rc_lookahead=90 / rc=2pass / mbtree=1 / bitrate=3500 / ratetol=1.0 / qcomp=0.80 / qpmin=8 / qpmax=20 / qpstep=4 / cplxblur=20.0 / qblur=0.5 / ip_ratio=1.40 / aq=2:0.40
Language : Japanese
Audio
ID : 2
Format : AC-3
Format/Info : Audio Coding 3
Mode extension : CM (complete main)
Codec ID : A_AC3
Duration : 50mn 18s
Bit rate mode : Constant
Bit rate : 640 Kbps
Channel(s) : 6 channels
Channel positions : Front: L C R, Side: L R, LFE
Sampling rate : 48.0 KHz
Bit depth : 16 bits
Compression mode : Lossy
Stream size : 230 MiB (15%)
Title : AC3 6 ch
Language : Japanese
Download

Скачать (бесплатно и на максимальной скорости)!

Как скачивать  ·   Что такое torrent (торрент)  ·   Рейтинг и ограничения

Сайт не распространяет и не хранит электронные версии произведений, а лишь предоставляет доступ к создаваемому пользователями каталогу ссылок на торрент-файлы, которые содержат только списки хеш-сумм


 
Показать сообщения:    
Ответить на тему

Текущее время: 14-Окт 00:00

Часовой пояс: GMT + 3



Вы не можете начинать темы
Вы не можете отвечать на сообщения
Вы не можете редактировать свои сообщения
Вы не можете удалять свои сообщения
Вы не можете голосовать в опросах
Вы не можете прикреплять файлы к сообщениям
Вы не можете скачивать файлы



В начало страницы  •