Loading...
Error
Регистрация  · 
Имя: Пароль:    
 ·  Забыли пароль?
Правила пользования ресурсом

Сегодня идет свободное скачивание без начисления скачанного

Птицы рая / Natural World: Birds of Paradise / PBS: Nature - Birds of the Gods (Харви Джонс) [2010 г., документальный, BDRip 720р]

Ответить на тему
 
Автор Сообщение

DED


post 24-Окт-2012 09:34

 



Птицы рая / Natural World: Birds of Paradise / PBS: Nature - Birds of the Gods


Год выпуска: 2010
Страна: Великобритания / Tigress Productions
Жанр: документальный
Продолжительность: 00:51:32
Перевод: Профессиональный (двухголосый закадровый)
Режиссер: Харви Джонс
В ролях: Дэвид Аттенборо
Описание: Добро пожаловать в дикий мир Новой Гвинеи - страны гор, стремительных рек и густых тропических лесов. Ее исключительно благоприятный климат создает уникальные условия для бурного расцвета местной флоры и фауны. Вы не представляете, какое огромное количество разновидностей райских птичек обитает здесь и в какие роскошные наряды они облачены. Вместе со знаменитым ведущим и натуралистом Дэвидом Аттенборо зрителя ждет путешествие в настоящий земной рай, чтобы исследовать этих птиц и узнать все про их повадки.



Качество: BDRip 720р
Формат: MKV
Видео кодек: H.264
Аудио кодек: AC3
Видео: 1280х720 (1.78:1), 24.000 fps, х264 AVC, ~4600 kbps avg, 0.20 bit/pixel
Аудио #1: 48.0 kHz, AC3 Dolby Digital, 2/0 (L,R) ch, ~448.00 kbps avg | Русский
Аудио #2: 48.0 kHz, AC3 Dolby Digital, 5.1 (L,C,R) + L R, LFE ch, ~448.00 kbps avg | Английский
Субтитры: нет

D:Birds of the Gods BDRip 720p_HDReactor.mkv
General
Unique ID : 226085407299353474482481771791500181212 (0xAA167730F36BF61AE4BD982F66B3FEDC)
Complete name : D:Birds of the Gods BDRip 720p.mkv
Format : Matroska
Format version : Version 2
File size : 1.98 GiB
Duration : 51mn 31s
Overall bit rate : 5 500 Kbps
Writing application : XviD4PSP 6.0 / 53.6.0
Writing library : XviD4PSP 6.0 / 53.6.0
Video #1
ID : 1
Format : AVC
Format/Info : Advanced Video Codec
Format profile : [email protected]
Format settings, CABAC : Yes
Format settings, ReFrames : 3 frames
Codec ID : V_MPEG4/ISO/AVC
Duration : 51mn 31s
Bit rate : 4 600 Kbps
Width : 1 280 pixels
Height : 720 pixels
Display aspect ratio : 16:9
Frame rate mode : Variable
Frame rate : 25.000 fps
Color space : YUV
Chroma subsampling : 4:2:0
Bit depth : 8 bits
Scan type : Progressive
Bits/(Pixel*Frame) : 0.200
Stream size : 1.62 GiB (82%)
Writing library : x264 core 116 r2019M 9cc407d
Encoding settings : cabac=1 / ref=3 / deblock=1:0:0 / analyse=0x3:0x133 / me=hex / subme=9 / psy=1 / psy_rd=1.00:0.20 / mixed_ref=1 / me_range=16 / chroma_me=1 / trellis=1 / 8x8dct=1 / cqm=0 / deadzone=21,11 / fast_pskip=1 / chroma_qp_offset=-3 / threads=8 / sliced_threads=0 / nr=0 / decimate=1 / interlaced=0 / bluray_compat=0 / constrained_intra=0 / bframes=3 / b_pyramid=1 / b_adapt=2 / b_bias=0 / direct=3 / weightb=1 / open_gop=0 / weightp=2 / keyint=250 / keyint_min=25 / scenecut=40 / intra_refresh=0 / rc_lookahead=40 / rc=2pass / mbtree=1 / bitrate=4600 / ratetol=1.0 / qcomp=0.60 / qpmin=10 / qpmax=51 / qpstep=4 / cplxblur=20.0 / qblur=0.5 / ip_ratio=1.40 / aq=1:1.00
Language : English
Default : Yes
Forced : No
Audio #2
ID : 2
Format : AC-3
Format/Info : Audio Coding 3
Mode extension : CM (complete main)
Codec ID : A_AC3
Duration : 51mn 31s
Bit rate mode : Constant
Bit rate : 448 Kbps
Channel(s) : 2 channels
Channel positions : Front: L R
Sampling rate : 48.0 KHz
Bit depth : 16 bits
Compression mode : Lossy
Stream size : 165 MiB (8%)
Language : Russian
Default : Yes
Forced : No
Audio #3
ID : 3
Format : AC-3
Format/Info : Audio Coding 3
Mode extension : CM (complete main)
Codec ID : A_AC3
Duration : 51mn 31s
Bit rate mode : Constant
Bit rate : 448 Kbps
Channel(s) : 6 channels
Channel positions : Front: L C R, Side: L R, LFE
Sampling rate : 48.0 KHz
Bit depth : 16 bits
Compression mode : Lossy
Stream size : 165 MiB (8%)
Language : English
Default : Yes
Forced : No


Download

Скачать (бесплатно и на максимальной скорости)!

Как скачивать  ·   Что такое torrent (торрент)  ·   Рейтинг и ограничения

Сайт не распространяет и не хранит электронные версии произведений, а лишь предоставляет доступ к создаваемому пользователями каталогу ссылок на торрент-файлы, которые содержат только списки хеш-сумм


 
Показать сообщения:    
Ответить на тему

Текущее время: 11-Май 17:37

Часовой пояс: GMT + 3



Вы не можете начинать темы
Вы не можете отвечать на сообщения
Вы не можете редактировать свои сообщения
Вы не можете удалять свои сообщения
Вы не можете голосовать в опросах
Вы не можете прикреплять файлы к сообщениям
Вы не можете скачивать файлы



В начало страницы  •