Loading...
Error
Регистрация  · 
Имя: Пароль:    
 ·  Забыли пароль?
Правила пользования ресурсом

Обладатель VIP статуса на 24 часа: Ш.Е.Ф.Ф.
стань следующим читай правила
Сегодня идет свободное скачивание без начисления скачанного

Самый сильный яд в мире / World's Worst Venom (Марк Фернс) [2007 г., Документальный,природа, HDTVRip]

Ответить на тему
 
Автор Сообщение

digitex


post 04-Апр-2012 19:38

 




_______________________
Год выпуска: 2007
Страна: Австралия
Жанр: Документальный,природа
Продолжительность: 00:47:18
Перевод: Профессиональный (одноголосый)
_______________________
Режиссер: Марк Фернс
В ролях: Самые ядовитые )))
_______________________
Описание:
Яд - один из самых эффективных способов убийства в природе. Попадая в кровь, он в считанные минуты разрушает клетки нервной системы и другие ткани организма, вызывая при этом дикую боль. Яд, являющийся смесью биологических токсинов, в качестве оружия выбрали многие живые существа. Но какое из этих существ самое ядовитое? Среди них заслуженным вниманием пользуются пауки и змеи, но в то же время существует большое количество менее известных, но не менее опасных для жизни. Все это вдохновило доктора Джеми Сеймура создать уникальную систему, позволяющую выявить "самый сильный яд в мире".
_______________________
Качество: HDTVRip
Формат: MKV
Видео кодек: H.26x
Аудио кодек: AC3
Видео: MPEG4 Video (H264) 1280x720 25fps [Undetermined (Video 1) [Default]]
Аудио: Dolby AC3 48000Hz 6ch [Russian,(Audio 1) [Default]]
General
Unique ID : 221452073136697810550877367303247075214 (0xA69A1E2E0AFF9466BEEA5C90CFAD978E)
Complete name : D:\World's Worst Venom.mkv
Format : Matroska
Format version : Version 1
File size : 1.09 GiB
Duration : 47mn 18s
Overall bit rate : 3 307 Kbps
Encoded date : UTC 2009-03-24 09:25:28
Writing application : mkvmerge v2.1.0 ('Another Place To Fall') built on Aug 19 2007 13:40:07
Writing library : libebml v0.7.7 + libmatroska v0.8.1

Video
ID : 1
Format : AVC
Format/Info : Advanced Video Codec
Format profile : [email protected]
Format settings, CABAC : Yes
Format settings, ReFrames : 5 frames
Codec ID : V_MPEG4/ISO/AVC
Duration : 47mn 18s
Bit rate : 2 920 Kbps
Width : 1 280 pixels
Height : 720 pixels
Display aspect ratio : 16:9
Frame rate : 25.000 fps
Color space : YUV
Chroma subsampling : 4:2:0
Bit depth : 8 bits
Scan type : Progressive
Bits/(Pixel*Frame) : 0.127
Stream size : 967 MiB (86%)
Writing library : x264 core 60 r900 a9af942
Encoding settings : cabac=1 / ref=5 / deblock=1:0:0 / analyse=0x3:0x133 / me=umh / subme=6 / brdo=1 / mixed_ref=1 / me_range=8 / chroma_me=1 / trellis=1 / 8x8dct=1 / cqm=0 / deadzone=21,11 / chroma_qp_offset=0 / threads=3 / nr=0 / decimate=1 / mbaff=0 / bframes=3 / b_pyramid=1 / b_adapt=1 / b_bias=0 / direct=3 / wpredb=1 / bime=1 / keyint=250 / keyint_min=50 / scenecut=40(pre) / rc=2pass / bitrate=2920 / ratetol=1.0 / rceq='blurCplx^(1-qComp)' / qcomp=1.00 / qpmin=10 / qpmax=51 / qpstep=4 / cplxblur=20.0 / qblur=0.5 / ip_ratio=1.40 / pb_ratio=1.30 / aq=2:1.00
Default : Yes
Forced : No

Audio
ID : 2
Format : AC-3
Format/Info : Audio Coding 3
Mode extension : CM (complete main)
Codec ID : A_AC3
Duration : 47mn 18s
Bit rate mode : Constant
Bit rate : 384 Kbps
Channel(s) : 6 channels
Channel positions : Front: L C R, Side: L R, LFE
Sampling rate : 48.0 KHz
Bit depth : 16 bits
Compression mode : Lossy
Stream size : 130 MiB (12%)
Title : Samyj.silnyj.jad.v.mire_by_nyctalus
Language : Russian
Default : Yes
Forced : No


Download

Скачать (бесплатно и на максимальной скорости)!

Как скачивать  ·   Что такое torrent (торрент)  ·   Рейтинг и ограничения

Сайт не распространяет и не хранит электронные версии произведений, а лишь предоставляет доступ к создаваемому пользователями каталогу ссылок на торрент-файлы, которые содержат только списки хеш-сумм


 
Показать сообщения:    
Ответить на тему

Текущее время: 15-Ноя 20:29

Часовой пояс: GMT + 3



Вы не можете начинать темы
Вы не можете отвечать на сообщения
Вы не можете редактировать свои сообщения
Вы не можете удалять свои сообщения
Вы не можете голосовать в опросах
Вы не можете прикреплять файлы к сообщениям
Вы не можете скачивать файлы



В начало страницы  •