Loading...
Error
Регистрация  · 
Имя: Пароль:    
 ·  Забыли пароль?
Правила пользования ресурсом

Сегодня идет свободное скачивание без начисления скачанного

Досье акульих атак (3 серии из 3) / Shark attack files (3 episodes from 3)[ (2008-2010) \ Jonathan Kydd, HDTV 1080i]

Ответить на тему
 
Автор Сообщение

digitex


post 02-Апр-2012 13:48

 




__________________________
Год выпуска: 2008-2010
Жанр: Документальный
Продолжительность: 3 серии по 45 мин
Режиссер: Jonathan Kydd
__________________________
Перевод: Профессиональный (одноголосый)
Русские субтитры: нет
Производство: Discovery Communications LLC
__________________________
Описание:
Акулы нападали,нападают и будут нападать на человека.Но что ими движет?Голод?Защита территории? Или что-то ещё?Ответы на эти вопросы пытаются найти как ученые,так и выжившие пострадавшие.

__________________________

Качество: HDTV
Формат: TS
Видео кодек: H.264
Аудио кодек: AC3
Видео: MPEG-TS at 9295 Кбит/сек AVC at 8060 Кбит/сек 1920 x 1080 (1.778) at 25.000 fps
Аудио: Русский AC-3 at 384 Кбит/сек 6 каналов, 48,0 КГц

General
ID : 14 (0xE)
Complete name : E:\Торренты\Sharks1-2-3\Досье акульих атак-1 серия.ts
Format : MPEG-TS
File size : 2.66 GiB
Duration : 44mn 0s
Overall bit rate : 8 663 Kbps

Video
ID : 324 (0x144)
Menu ID : 14104 (0x3718)
Format : AVC
Format/Info : Advanced Video Codec
Format profile : [email protected]
Format settings, CABAC : Yes
Format settings, ReFrames : 3 frames
Format settings, GOP : M=4, N=32
Codec ID : 27
Duration : 44mn 0s
Bit rate : 7 459 Kbps
Width : 1 920 pixels
Height : 1 080 pixels
Display aspect ratio : 16:9
Frame rate : 25.000 fps
Standard : Component
Color space : YUV
Chroma subsampling : 4:2:0
Bit depth : 8 bits
Scan type : Interlaced
Scan order : Top Field First
Bits/(Pixel*Frame) : 0.144
Stream size : 2.29 GiB (86%)
Color primaries : BT.709-5, BT.1361, IEC 61966-2-4, SMPTE RP177
Transfer characteristics : BT.709-5, BT.1361
Matrix coefficients : BT.709-5, BT.1361, IEC 61966-2-4 709, SMPTE RP177

Audio #1
ID : 404 (0x194)
Menu ID : 14104 (0x3718)
Format : AC-3
Format/Info : Audio Coding 3
Mode extension : CM (complete main)
Codec ID : 6
Duration : 44mn 0s
Bit rate mode : Constant
Bit rate : 384 Kbps
Channel(s) : 6 channels
Channel positions : Front: L C R, Side: L R, LFE
Sampling rate : 48.0 KHz
Bit depth : 16 bits
Compression mode : Lossy
Delay relative to video : 25ms
Stream size : 121 MiB (4%)
Language : Russian
Language, more info : Clean effects

Audio #2
ID : 414 (0x19E)
Menu ID : 14104 (0x3718)
Format : AC-3
Format/Info : Audio Coding 3
Mode extension : CM (complete main)
Codec ID : 6
Duration : 44mn 0s
Bit rate mode : Constant
Bit rate : 384 Kbps
Channel(s) : 6 channels
Channel positions : Front: L C R, Side: L R, LFE
Sampling rate : 48.0 KHz
Bit depth : 16 bits
Compression mode : Lossy
Delay relative to video : 57ms
Stream size : 121 MiB (4%)
Language : English
Language, more info : Clean effects


Download

Скачать (бесплатно и на максимальной скорости)!

Как скачивать  ·   Что такое torrent (торрент)  ·   Рейтинг и ограничения

Сайт не распространяет и не хранит электронные версии произведений, а лишь предоставляет доступ к создаваемому пользователями каталогу ссылок на торрент-файлы, которые содержат только списки хеш-сумм


 
Показать сообщения:    
Ответить на тему

Текущее время: 11-Май 17:45

Часовой пояс: GMT + 3



Вы не можете начинать темы
Вы не можете отвечать на сообщения
Вы не можете редактировать свои сообщения
Вы не можете удалять свои сообщения
Вы не можете голосовать в опросах
Вы не можете прикреплять файлы к сообщениям
Вы не можете скачивать файлы



В начало страницы  •