Loading...
Error
Регистрация  · 
Имя: Пароль:    
 ·  Забыли пароль?
Правила пользования ресурсом

Обладатель VIP статуса на 24 часа: Soul
стань следующим читай правила
Сегодня идет свободное скачивание без начисления скачанного

BBC Апокалипсис древних цивилизаций / BBC Ancient Apocalypse (Simon Holland) [2001 г., документальный, история, DVDRip]

Ответить на тему
 
Автор Сообщение

digitex


post 01-Апр-2012 20:37

 




_____________________________
Год выпуска: 2001
Страна: Великобритания
Жанр: документальный, история
Продолжительность: 4 x 50 мин
Перевод: Профессиональный (двухголосый-по заказу ГТРК Культура)
Режиссер: Simon Holland
Производство: BBC
_____________________________
Описание:
Почему исчезли древние цивилизации? Какую роль в этом сыграла стихия? Профессор Фекри Хассан пытается найти ответы в документальном сериале "Древний апокалипсис".
Древний Апокалипсис Часть 1 - Смерть На Берегах Нила
Древний Апокалипсис Часть 2 - Загадка Минойцев
Древний апокалипсис Часть 3 - Гибель майя
Древний Апокалипсис Часть 4 - Содом И Гоморр
_____________________________
Качество: DVDRip
Формат: AVI
Видео кодек: XviD
Аудио кодек: MPEG Audio
Видео: XVID 512x384 29.97fps 1711Kbps
Аудио: MPEG Audio Layer 3 44100Hz stereo 139Kbps

Древний Апокалипсис Часть 1 - Смерть На Берегах Нила / Ancient Apocalypse Death On The Nile:

Профессор Фекри Хассан пытается определить, почему египетская цивилизация Великих пирамид исчезла приблизительно в 2200 году до нашей эры. Сможет ли наука доказать, что причиной стала стихия? Возможно, разгадку придется искать от пустынь южного Египта до ледников Исландии.

Древний Апокалипсис Часть 2 - Загадка Минойцев / Ancient Apocalypse Mystery ot the Minoans:

Минойская цивилизация исчезла примерно 3,5 тысячи лет назад на острове Тира.

Древний апокалипсис Часть 3 - Гибель майя / Ancient Apocalypse. The Maya Collapse:

Майя - цивилизация в Центральной Америке, существовавшая приблизительно с 1000 до н. э. до испанского завоевания.
Майя строили каменные города, многие из которых были покинуты задолго до прихода европейцев, другие были обитаемы и после. Календарь, разработанный майя использовали и другие народы Центральной Америки. Применялась иероглифическая система письма, частично расшифрованная. Сохранились многочисленные надписи на памятниках. Создали эффективную систему земледелия, имели глубокие знания в области астрономии.

Древний Апокалипсис Часть 4 - Содом И Гоморра / Ancient Apocalypse Sodom and Gomorrah:

Действительно ли существовали библейские города Содом и Гоморра? Что послужило причиной их гибели: гнев Бога, землетрясение, вызвавшее разрушительный оползень?

Общее
Полное имя : E:\Торренты\Древний Апокалипсис (док.)\BBC.Ancient.Apocalypse.EP01.Death.on.the.Nile.avi
Формат : AVI
Формат/Информация : Audio Video Interleave
Размер файла : 646 Мбайт
Продолжительность : 49 м.
Режим общего битрейта : Переменный
Общий поток : 1839 Кбит/сек
Программа кодирования : VirtualDubMod 1.5.10.2 (build 2542/release)
Библиотека кодирования : VirtualDubMod build 2542/release

Видео
Идентификатор : 0
Формат : MPEG-4 Visual
Профиль формата : Advanced [email protected]
Параметр BVOP формата : 2
Параметр QPel формата : Да
Параметр GMC формата : Без точки перехода
Параметр матрицы формата : Выборочная
Идентификатор кодека : XVID
Идентификатор кодека/Подсказка : XviD
Продолжительность : 49 м.
Битрейт : 1711 Кбит/сек
Ширина : 512 пикселей
Высота : 384 пикселя
Соотношение сторон : 4:3
Частота кадров : 29,970 кадров/сек
Цветовое пространство : YUV
Субдискретизация насыщенности : 4:2:0
Битовая глубина : 8 бит
Тип развёртки : Прогрессивная
Метод сжатия : С потерями
Бит/(Пиксели*Кадры) : 0.290
Размер потока : 601 Мбайт (93%)
Библиотека кодирования : XviD 1.0.1 (UTC 2004-06-05)

Аудио
Идентификатор : 1
Формат : MPEG Audio
Версия формата : Version 1
Профиль формата : Layer 3
Режим : Joint stereo
Расширение режима : MS Stereo
Идентификатор кодека : 55
Идентификатор кодека/Подсказка : MP3
Продолжительность : 49 м.
Вид битрейта : Переменный
Битрейт : 115 Кбит/сек
Минимальный битрейт : 96,0 Кбит/сек
Каналы : 2 канала
Частота : 44,1 КГц
Метод сжатия : С потерями
Размер потока : 40,3 Мбайт (6%)
Выравнивание : Соединение по промежуткам
Продолжительность промежутка : 26 мс. (0,78 видеокадр)
Время предзагрузки промежутка : 166 мс.
Библиотека кодирования : LAME3.97b
Настройки программы : -m j -V 2 -q 2 -lowpass 15 --vbr-old -b 96



Download

Скачать (бесплатно и на максимальной скорости)!

Как скачивать  ·   Что такое torrent (торрент)  ·   Рейтинг и ограничения

Сайт не распространяет и не хранит электронные версии произведений, а лишь предоставляет доступ к создаваемому пользователями каталогу ссылок на торрент-файлы, которые содержат только списки хеш-сумм


 
Показать сообщения:    
Ответить на тему

Текущее время: 13-Ноя 03:13

Часовой пояс: GMT + 3



Вы не можете начинать темы
Вы не можете отвечать на сообщения
Вы не можете редактировать свои сообщения
Вы не можете удалять свои сообщения
Вы не можете голосовать в опросах
Вы не можете прикреплять файлы к сообщениям
Вы не можете скачивать файлы



В начало страницы  •