Loading...
Error
Регистрация  · 
Имя: Пароль:    
 ·  Забыли пароль?
Правила пользования ресурсом

Сегодня идет свободное скачивание без начисления скачанного

(Rock) Вячеслав Бутусов & Ю-Питер - Цветы и Тернии - 2010, iso.wv, lossless

Ответить на тему
 
Автор Сообщение

korobok


post 05-Дек-2010 21:19

 

Вячеслав Бутусов & Ю-Питер - Цветы и Тернии


Страна: Russia
Жанр: Rock
Год выпуска: 2010
Издатель: Союз / SZCD 7137-10
Формат: iso.wv
Битрейт аудио: lossless
Продолжительность: 00:52:25

Позавчера в Москве группа представила новый альбом. В полном составе.
Бонусное видео в соответствующей папке.
01. Глаза (4:41)
02. Скалолазы (4:04)
03. Это (3:40)
04. Прятки (3:53)
05. Небо земли (3:20)
06. Что же я такого (5:44)
07. Чистый плюс (3:21)
08. Враг (2:57)
09. Цветок (4:24)
10. Терновник (3:43)
11. Невесомость (3:17)
12. Дети минут (Акустика) (4:26)
13. Дети минут (Электричество) (4:54)
Exact Audio Copy V0.99 prebeta 4 from 23. January 2008

EAC extraction logfile from 4. December 2010, 2:09

Вячеслав Бутусов & Ю-Питер / Цветы и Тернии

Used drive : Optiarc DVD RW AD-5240S Adapter: 0 ID: 4

Read mode : Secure
Utilize accurate stream : Yes
Defeat audio cache : Yes
Make use of C2 pointers : No

Read offset correction : 48
Overread into Lead-In and Lead-Out : No
Fill up missing offset samples with silence : Yes
Delete leading and trailing silent blocks : No
Null samples used in CRC calculations : Yes
Used interface : Installed external ASPI interface

Used output format : User Defined Encoder
Selected bitrate : 896 kBit/s
Quality : High
Add ID3 tag : No
Command line compressor : G:\Program Files\Exact Audio Copy\wavpack.exe
Additional command line options : -hlm %s

TOC of the extracted CD

Track | Start | Length | Start sector | End sector
---------------------------------------------------------
1 | 0:00.00 | 4:40.71 | 0 | 21070
2 | 4:40.71 | 4:03.74 | 21071 | 39369
3 | 8:44.70 | 3:39.60 | 39370 | 55854
4 | 12:24.55 | 3:52.67 | 55855 | 73321
5 | 16:17.47 | 3:20.30 | 73322 | 88351
6 | 19:38.02 | 5:43.52 | 88352 | 114128
7 | 25:21.54 | 3:20.58 | 114129 | 129186
8 | 28:42.37 | 2:57.15 | 129187 | 142476
9 | 31:39.52 | 4:24.25 | 142477 | 162301
10 | 36:04.02 | 3:43.04 | 162302 | 179030
11 | 39:47.06 | 3:17.37 | 179031 | 193842
12 | 43:04.43 | 4:26.30 | 193843 | 213822
13 | 47:30.73 | 4:53.61 | 213823 | 235858
14 | 54:56.59 | 10:56.24 | 247259 | 296482

Range status and errors

Selected range

Filename E:\Lossless\Oleg39\Бутусов - Цветы и тернии\Вячеслав Бутусов & Ю-Питер - Цветы и Тернии.wav

Peak level 100.0 %
Range quality 100.0 %
Test CRC 85052871
Copy CRC 85052871
Copy OK

No errors occurred

AccurateRip summary
Track 1 not present in database
Track 2 not present in database
Track 3 not present in database
Track 4 not present in database
Track 5 not present in database
Track 6 not present in database
Track 7 not present in database
Track 8 not present in database
Track 9 not present in database
Track 10 not present in database
Track 11 not present in database
Track 12 not present in database
Track 13 not present in database
None of the tracks are present in the AccurateRip database

End of status report


Огромное спасибо оригинальному релизёру Oleg39 за материал для раздачи
Download

Скачать (бесплатно и на максимальной скорости)!

Как скачивать  ·   Что такое torrent (торрент)  ·   Рейтинг и ограничения

Сайт не распространяет и не хранит электронные версии произведений, а лишь предоставляет доступ к создаваемому пользователями каталогу ссылок на торрент-файлы, которые содержат только списки хеш-сумм


 
Показать сообщения:    
Ответить на тему

Текущее время: 20-Июн 12:38

Часовой пояс: GMT + 3



Вы не можете начинать темы
Вы не можете отвечать на сообщения
Вы не можете редактировать свои сообщения
Вы не можете удалять свои сообщения
Вы не можете голосовать в опросах
Вы не можете прикреплять файлы к сообщениям
Вы не можете скачивать файлы



В начало страницы  •