Loading...
Error
Регистрация  · 
Имя: Пароль:    
 ·  Забыли пароль?
Правила пользования ресурсом

Обладатель VIP статуса на 24 часа: nikola120
стань следующим читай правила
Сегодня идет свободное скачивание без начисления скачанного

(Progressive Rock) Roger Waters - Complete Studio Albums 1970-2005, FLAC (tracks+.cue+art), lossless

Ответить на тему
 
Автор Сообщение

korobok


post 14-Ноя-2010 12:33

 

Roger Waters - Complete Studio Albums 1970-2005


Страна: Великобритания
Жанр: Progressive Rock
Год выпуска: 1970-2005
Формат: FLAC (tracks+.cue+art)
Битрейт аудио: lossless
Продолжительность: 10:32:22
Product Details:
Audio CD (July 1, 1993)
Original Release Date: 1970
Number of Discs: 1
Format: Soundtrack
Label: Restless Records
ASIN: B000003BH2
01. Our Song (1:28)
02. Sea Shell and Stone (2:15)
03. Red Stuff Writhe (1:15)
04. A Gentle Breeze Blew Through Life (1:16)
05. Lick Your Partners (0:36)
06. Bridge Passage for Three Plastic Teeth (0:35)
07. Chain of Life (4:05)
08. The Womb Bit (2:07)
09. Embryo Thought (0:34)
10. March Past of the Embryos (1:09)
11. More than Seven Dwarfs in Penis-Land (2:07)
12. Dance of the Red Corpuscles (2:01)
13. Body Transport (3:15)
14. Hand Dance-Full Evening Dress (1:05)
15. Breathe (2:49)
16. Old Folks Ascension (3:47)
17. Bed-Time-Dream-Chime (2:04)
18. Piddle in Perspex (0:57)
19. Embryonic Womb-Walk (1:19)
20. Mrs. Throat Goes Walking (2:10)
21. Sea Shell and Soft Stone (1:56)
22. Give Birth to a Smile (2:49)
EAC extraction logfile from 16. July 2007, 21:22 for CD
Roger Waters & Ron Geesin / Music From The Body

Used drive : BENQ CDRW 5232X Adapter: 1 ID: 0
Read mode : Secure with NO C2, accurate stream, disable cache
Read offset correction : 738
Overread into Lead-In and Lead-Out : No

Used output format : C:\Program Files\FLAC\flac.exe (User Defined Encoder)
320 kBit/s
Additional command line options : -V -8 -T "artist=%a" -T "title=%t" -T "album=%g" -T "date=%y" -T "tracknumber=%n" -T "genre=%m" %s

Other options :
Fill up missing offset samples with silence : Yes
Delete leading and trailing silent blocks : No
Installed external ASPI interface

Track 1
Filename C:\Documents and Settings\Jupiter12\My Documents\_My Torrents\Roger Waters & Ron Geesin - Music From The Body (1970) [FLAC]\01 - Our Song.wav

Pre-gap length 0:00:02.36

Peak level 68.5 %
Track quality 99.8 %
Test CRC D34BB020
Copy CRC D34BB020
Copy OK

Track 2
Filename C:\Documents and Settings\Jupiter12\My Documents\_My Torrents\Roger Waters & Ron Geesin - Music From The Body (1970) [FLAC]\02 - Sea Shell and Stone.wav

Peak level 27.9 %
Track quality 100.0 %
Test CRC EAC187AC
Copy CRC EAC187AC
Copy OK

Track 3
Filename C:\Documents and Settings\Jupiter12\My Documents\_My Torrents\Roger Waters & Ron Geesin - Music From The Body (1970) [FLAC]\03 - Red Stuff Writhe.wav

Peak level 33.8 %
Track quality 100.0 %
Test CRC 9A4164CB
Copy CRC 9A4164CB
Copy OK

Track 4
Filename C:\Documents and Settings\Jupiter12\My Documents\_My Torrents\Roger Waters & Ron Geesin - Music From The Body (1970) [FLAC]\04 - A Gentle Breeze Blew Through Life.wav

Peak level 53.9 %
Track quality 100.0 %
Test CRC 10360EC2
Copy CRC 10360EC2
Copy OK

Track 5
Filename C:\Documents and Settings\Jupiter12\My Documents\_My Torrents\Roger Waters & Ron Geesin - Music From The Body (1970) [FLAC]\05 - Lick Your Partners.wav

Peak level 49.6 %
Track quality 100.0 %
Test CRC A77DC896
Copy CRC A77DC896
Copy OK

Track 6
Filename C:\Documents and Settings\Jupiter12\My Documents\_My Torrents\Roger Waters & Ron Geesin - Music From The Body (1970) [FLAC]\06 - Bridge Passage for Three Plastic Teeth.wav

Peak level 44.3 %
Track quality 100.0 %
Test CRC FF59ECCC
Copy CRC FF59ECCC
Copy OK

Track 7
Filename C:\Documents and Settings\Jupiter12\My Documents\_My Torrents\Roger Waters & Ron Geesin - Music From The Body (1970) [FLAC]\07 - Chain of Life.wav

Peak level 27.8 %
Track quality 100.0 %
Test CRC 0D22BB44
Copy CRC 0D22BB44
Copy OK

Track 8
Filename C:\Documents and Settings\Jupiter12\My Documents\_My Torrents\Roger Waters & Ron Geesin - Music From The Body (1970) [FLAC]\08 - The Womb Bit.wav

Peak level 50.7 %
Track quality 99.9 %
Test CRC E05A0BCF
Copy CRC E05A0BCF
Copy OK

Track 9
Filename C:\Documents and Settings\Jupiter12\My Documents\_My Torrents\Roger Waters & Ron Geesin - Music From The Body (1970) [FLAC]\09 - Embryo Thought.wav

Peak level 40.5 %
Track quality 100.0 %
Test CRC 80EAB3CF
Copy CRC 80EAB3CF
Copy OK

Track 10
Filename C:\Documents and Settings\Jupiter12\My Documents\_My Torrents\Roger Waters & Ron Geesin - Music From The Body (1970) [FLAC]\10 - March Past of the Embryos.wav

Peak level 42.7 %
Track quality 100.0 %
Test CRC CAEE892B
Copy CRC CAEE892B
Copy OK

Track 11
Filename C:\Documents and Settings\Jupiter12\My Documents\_My Torrents\Roger Waters & Ron Geesin - Music From The Body (1970) [FLAC]\11 - More than Seven Dwarfs in Penis-Land.wav

Peak level 96.1 %
Track quality 100.0 %
Test CRC 354658C9
Copy CRC 354658C9
Copy OK

Track 12
Filename C:\Documents and Settings\Jupiter12\My Documents\_My Torrents\Roger Waters & Ron Geesin - Music From The Body (1970) [FLAC]\12 - Dance of the Red Corpuscles.wav

Peak level 69.8 %
Track quality 100.0 %
Test CRC 1230E599
Copy CRC 1230E599
Copy OK

Track 13
Filename C:\Documents and Settings\Jupiter12\My Documents\_My Torrents\Roger Waters & Ron Geesin - Music From The Body (1970) [FLAC]\13 - Body Transport.wav

Peak level 100.0 %
Track quality 100.0 %
Test CRC 47F6EFC9
Copy CRC 47F6EFC9
Copy OK

Track 14
Filename C:\Documents and Settings\Jupiter12\My Documents\_My Torrents\Roger Waters & Ron Geesin - Music From The Body (1970) [FLAC]\14 - Hand Dance-Full Evening Dress.wav

Peak level 22.0 %
Track quality 100.0 %
Test CRC 3565A195
Copy CRC 3565A195
Copy OK

Track 15
Filename C:\Documents and Settings\Jupiter12\My Documents\_My Torrents\Roger Waters & Ron Geesin - Music From The Body (1970) [FLAC]\15 - Breathe.wav

Peak level 34.9 %
Track quality 100.0 %
Test CRC C592683D
Copy CRC C592683D
Copy OK

Track 16
Filename C:\Documents and Settings\Jupiter12\My Documents\_My Torrents\Roger Waters & Ron Geesin - Music From The Body (1970) [FLAC]\16 - Old Folks Ascension.wav

Peak level 75.1 %
Track quality 100.0 %
Test CRC 2650C961
Copy CRC 2650C961
Copy OK

Track 17
Filename C:\Documents and Settings\Jupiter12\My Documents\_My Torrents\Roger Waters & Ron Geesin - Music From The Body (1970) [FLAC]\17 - Bed-Time-Dream-Chime.wav

Peak level 19.7 %
Track quality 100.0 %
Test CRC E508D9EE
Copy CRC E508D9EE
Copy OK

Track 18
Filename C:\Documents and Settings\Jupiter12\My Documents\_My Torrents\Roger Waters & Ron Geesin - Music From The Body (1970) [FLAC]\18 - Piddle in Perspex.wav

Peak level 25.1 %
Track quality 100.0 %
Test CRC 7CD93E8C
Copy CRC 7CD93E8C
Copy OK

Track 19
Filename C:\Documents and Settings\Jupiter12\My Documents\_My Torrents\Roger Waters & Ron Geesin - Music From The Body (1970) [FLAC]\19 - Embryonic Womb-Walk.wav

Peak level 26.0 %
Track quality 100.0 %
Test CRC 94D60070
Copy CRC 94D60070
Copy OK

Track 20
Filename C:\Documents and Settings\Jupiter12\My Documents\_My Torrents\Roger Waters & Ron Geesin - Music From The Body (1970) [FLAC]\20 - Mrs. Throat Goes Walking.wav

Peak level 71.2 %
Track quality 100.0 %
Test CRC 32E300FB
Copy CRC 32E300FB
Copy OK

Track 21
Filename C:\Documents and Settings\Jupiter12\My Documents\_My Torrents\Roger Waters & Ron Geesin - Music From The Body (1970) [FLAC]\21 - Sea Shell and Soft Stone.wav

Peak level 37.5 %
Track quality 100.0 %
Test CRC ED334AD4
Copy CRC ED334AD4
Copy OK

Track 22
Filename C:\Documents and Settings\Jupiter12\My Documents\_My Torrents\Roger Waters & Ron Geesin - Music From The Body (1970) [FLAC]\22 - Give Birth to a Smile.wav

Peak level 100.0 %
Track quality 100.0 %
Test CRC EE881053
Copy CRC EE881053
Copy OK

No errors occured

End of status report
[CUETools log; Date: 14.11.2010 10:12:20; Version: 2.0.9]
Pregap length 00:00:27.
[CTDB TOCID: fkxpnoCtJZJJP5L6o_ZGAlcz.zA-] disk not present in database.
[AccurateRip ID: 001e7811-01f2ca27-2209c216] found.
Track [ CRC ] Status
01 [521ab93a] (15/17) Accurately ripped
02 [682a9f6f] (15/17) Accurately ripped
03 [55d7a6e3] (15/17) Accurately ripped
04 [1ef1be63] (15/17) Accurately ripped
05 [f52974fe] (15/17) Accurately ripped
06 [7e19bb35] (15/17) Accurately ripped
07 [be00ebe4] (15/17) Accurately ripped
08 [8c9abab0] (15/15) Accurately ripped
09 [3e714db4] (15/17) Accurately ripped
10 [302d657e] (15/17) Accurately ripped
11 [34535f3c] (15/17) Accurately ripped
12 [970901b9] (15/17) Accurately ripped
13 [9e586df6] (15/17) Accurately ripped
14 [86149c24] (15/17) Accurately ripped
15 [801334c6] (15/17) Accurately ripped
16 [648dfe0c] (15/17) Accurately ripped
17 [3dc11669] (15/17) Accurately ripped
18 [61e7a99a] (15/17) Accurately ripped
19 [f5bdee31] (15/15) Accurately ripped
20 [bec9425d] (15/17) Accurately ripped
21 [b5019deb] (15/17) Accurately ripped
22 [4fde20e6] (15/17) Accurately ripped

Track Peak [ CRC32 ] [W/O NULL] [ LOG ]
-- 100,0 [9DA0B86C] [680D394E]
01 68,5 [D34BB020] [5A332C2B] CRC32
02 27,9 [EAC187AC] [802D2607] CRC32
03 33,8 [9A4164CB] [4AC0DD84] CRC32
04 53,9 [10360EC2] [126A4150] CRC32
05 49,6 [A77DC896] [78CD6E42] CRC32
06 44,3 [FF59ECCC] [AB456AE4] CRC32
07 27,8 [0D22BB44] [4AD4750E] CRC32
08 50,7 [E05A0BCF] [7AF4E068] CRC32
09 40,5 [80EAB3CF] [823F3FEA] CRC32
10 42,7 [CAEE892B] [99DCEFB5] CRC32
11 96,1 [354658C9] [9A0838C8] CRC32
12 69,8 [1230E599] [A2A950BD] CRC32
13 100,0 [47F6EFC9] [1E8C630E] CRC32
14 22,0 [3565A195] [35337F3F] CRC32
15 34,9 [C592683D] [694E22DA] CRC32
16 75,1 [2650C961] [93C7FF52] CRC32
17 19,7 [E508D9EE] [C4F5A14F] CRC32
18 25,1 [7CD93E8C] [3992A0EA] CRC32
19 26,0 [94D60070] [704A6371] CRC32
20 71,2 [32E300FB] [641F68E3] CRC32
21 37,5 [ED334AD4] [59F6D2C3] CRC32
22 100,0 [EE881053] [520D08A0] CRC32
Recorded: Between February and December of 1983 at Olympic, Eel Pie and The Billiard Room, the recording studio in Waters's Barnes, West London, house.
Released: April 30, 1984
Label: Columbia CDP746292
01. 4.30 AM (Apparently They Were Travelling Abroad) (3:12)
02. 4.33 AM (Running Shoes) (3:22)
03. 4.37 AM (Arabs With Knives and West German Skies) (2:21)
04. 4.39 AM (For The First Time Today - Part 2) (2:45)
05. 4.41 AM (Sexual Revolution) (4:49)
06. 4.47 AM (The Remains Of Our Love) (3:08)
07. 4.50 AM (Go Fishing) (6:47)
08. 4.56 AM (For The First Time Today - Part 1) (1:52)
09. 4.58 AM (Dunroamin, Duncarin, Dunlivin) (3:04)
10. 5.01 AM (The Pros And Cons Of Hitch Hiking - Part 10) (4:37)
11. 5.06 AM (Every Strangers Eyes) (4:49)
12. 5.11 AM (The Moment Of Clarity) (1:29)
EAC extraction logfile from 22. August 2005, 18:39 for CD
Roger Waters / The Pros And Cons Of Hitch Hiking

Used drive : PLEXTOR DVD-ROM PX-116A2 Adapter: 1 ID: 0
Read mode : Secure with NO C2, accurate stream, disable cache
Read offset correction : 102
Overread into Lead-In and Lead-Out : No

Used output format : Internal WAV Routines
44.100 Hz; 16 Bit; Stereo

Other options :
Fill up missing offset samples with silence : Yes
Delete leading and trailing silent blocks : No
Installed external ASPI interface

Track 1
Filename D:\Rip\Roger Waters - The Pros and Cons of Hitch Hiking (1984)\01 - 4.30 AM (Apparently They Were Travelling Abroad).wav

Pre-gap length 0:00:02.00

Peak level 54.4 %
Track quality 100.0 %
Test CRC 615EE626
Copy CRC 615EE626
Copy OK

Track 2
Filename D:\Rip\Roger Waters - The Pros and Cons of Hitch Hiking (1984)\02 - 4.33 AM (Running Shoes).wav

Peak level 60.6 %
Track quality 100.0 %
Test CRC 2AD2696E
Copy CRC 2AD2696E
Copy OK

Track 3
Filename D:\Rip\Roger Waters - The Pros and Cons of Hitch Hiking (1984)\03 - 4.37 AM (Arabs With Knives and West German Skies).wav

Peak level 100.0 %
Track quality 100.0 %
Test CRC 5CD5490E
Copy CRC 5CD5490E
Copy OK

Track 4
Filename D:\Rip\Roger Waters - The Pros and Cons of Hitch Hiking (1984)\04 - 4.39 AM (For The First Time Today - Part 2).wav

Peak level 73.0 %
Track quality 100.0 %
Test CRC 0F422760
Copy CRC 0F422760
Copy OK

Track 5
Filename D:\Rip\Roger Waters - The Pros and Cons of Hitch Hiking (1984)\05 - 4.41 AM (Sexual Revolution).wav

Peak level 95.3 %
Track quality 100.0 %
Test CRC E658D28B
Copy CRC E658D28B
Copy OK

Track 6
Filename D:\Rip\Roger Waters - The Pros and Cons of Hitch Hiking (1984)\06 - 4.47 AM (The Remains Of Our Love).wav

Peak level 54.7 %
Track quality 100.0 %
Test CRC 263525BF
Copy CRC 263525BF
Copy OK

Track 7
Filename D:\Rip\Roger Waters - The Pros and Cons of Hitch Hiking (1984)\07 - 4.50 AM (Go Fishing).wav

Peak level 81.6 %
Track quality 99.9 %
Test CRC 02BFC982
Copy CRC 02BFC982
Copy OK

Track 8
Filename D:\Rip\Roger Waters - The Pros and Cons of Hitch Hiking (1984)\08 - 4.56 AM (For The First Time Today - Part 1).wav

Peak level 58.0 %
Track quality 100.0 %
Test CRC 443AF2BF
Copy CRC 443AF2BF
Copy OK

Track 9
Filename D:\Rip\Roger Waters - The Pros and Cons of Hitch Hiking (1984)\09 - 4.58 AM (Dunroamin, Duncarin, Dunlivin).wav

Peak level 78.6 %
Track quality 100.0 %
Test CRC 5588D19D
Copy CRC 5588D19D
Copy OK

Track 10
Filename D:\Rip\Roger Waters - The Pros and Cons of Hitch Hiking (1984)\10 - 5.01 AM (The Pros And Cons Of Hitch Hiking - Part 10).wav

Peak level 98.2 %
Track quality 99.9 %
Test CRC 2F9331AD
Copy CRC 2F9331AD
Copy OK

Track 11
Filename D:\Rip\Roger Waters - The Pros and Cons of Hitch Hiking (1984)\11 - 5.06 AM (Every Strangers Eyes).wav

Peak level 97.8 %
Track quality 100.0 %
Test CRC 7A462CC3
Copy CRC 7A462CC3
Copy OK

Track 12
Filename D:\Rip\Roger Waters - The Pros and Cons of Hitch Hiking (1984)\12 - 5.11 AM (The Moment Of Clarity).wav

Peak level 42.2 %
Track quality 100.0 %
Test CRC 91DA7976
Copy CRC 91DA7976
Copy OK

No errors occured

End of status report
[CUETools log; Date: 14.11.2010 10:52:05; Version: 2.0.9]
[CTDB TOCID: CtyHcvr6GOt5ZVHUzQ.35dYf51A-] disk not present in database.
[AccurateRip ID: 0012a3d4-00b06c80-c009e70c] found.
Track [ CRC ] Status
01 [f0fa806b] (046/138) Accurately ripped
02 [aafd50a1] (049/138) Accurately ripped
03 [f1271339] (049/142) Accurately ripped
04 [dfcc1ff0] (050/143) Accurately ripped
05 [71991f71] (048/140) Accurately ripped
06 [28a54eef] (048/141) Accurately ripped
07 [f640f1fd] (048/141) Accurately ripped
08 [0b6fb29d] (048/141) Accurately ripped
09 [d04e70b4] (048/140) Accurately ripped
10 [a9c1489b] (048/141) Accurately ripped
11 [03d19c15] (048/141) Accurately ripped
12 [34d7c9dc] (048/141) Accurately ripped

Track Peak [ CRC32 ] [W/O NULL]
-- 100,0 [0BF1A59F] [E4AF0B5B]
01 54,4 [615EE626] [7B279670]
02 60,6 [2AD2696E] [A0224553]
03 100,0 [5CD5490E] [E5C3A375]
04 73,0 [0F422760] [CF03C94F]
05 95,3 [E658D28B] [0F026CB1]
06 54,7 [263525BF] [6BF35515]
07 81,6 [02BFC982] [E0C3EDA4]
08 58,0 [443AF2BF] [02160405]
09 78,6 [5588D19D] [932F4DC3]
10 98,2 [2F9331AD] [B188DD28]
11 97,8 [7A462CC3] [8A3E277A]
12 42,2 [91DA7976] [8C9FB0FF]
Product Info:
1986 Virgin Records Limited
0777 786706 2 9
CDV 2406
Made In Holland
Biem / Stemra
01. David Bowie - When The Wind Blows (3:35)
02. Hugh Cornwell - Facts And Figures (4:19)
03. Genesis - The Brazilian (4:51)
04. Squeeze - What Have They Done (3:39)
05. Paul Hardcastle - The Shuffle (4:16)
06. Roger Waters - When The Wind Blows - Film Score (24:26)
EAC extraction logfile from 23. September 2007, 3:27 for CD
Various / When The Wind Blows

Used drive : BENQ CDRW 5232X Adapter: 1 ID: 0
Read mode : Secure with NO C2, accurate stream, disable cache
Read offset correction : 738
Overread into Lead-In and Lead-Out : No

Used output format : C:\Program Files\FLAC\flac.exe (User Defined Encoder)
320 kBit/s
Additional command line options : -V -8 -T "artist=%a" -T "title=%t" -T "album=%g" -T "date=%y" -T "tracknumber=%n" -T "genre=%m" %s

Other options :
Fill up missing offset samples with silence : Yes
Delete leading and trailing silent blocks : No
Installed external ASPI interface

Track 1
Filename C:\Documents and Settings\Jupiter12\My Documents\_My Torrents\VA - When The Wind Blows (1986) [FLAC]\01 - David Bowie - When The Wind Blows.wav

Pre-gap length 0:00:02.66

Peak level 91.4 %
Track quality 99.9 %
Test CRC 48B26258
Copy CRC 48B26258
Copy OK

Track 2
Filename C:\Documents and Settings\Jupiter12\My Documents\_My Torrents\VA - When The Wind Blows (1986) [FLAC]\02 - Hugh Cornwell - Facts And Figures.wav

Pre-gap length 0:00:01.36

Peak level 96.3 %
Track quality 100.0 %
Test CRC A808BD4D
Copy CRC A808BD4D
Copy OK

Track 3
Filename C:\Documents and Settings\Jupiter12\My Documents\_My Torrents\VA - When The Wind Blows (1986) [FLAC]\03 - Genesis - The Brazilian.wav

Pre-gap length 0:00:00.66

Peak level 95.5 %
Track quality 100.0 %
Test CRC CCED5341
Copy CRC CCED5341
Copy OK

Track 4
Filename C:\Documents and Settings\Jupiter12\My Documents\_My Torrents\VA - When The Wind Blows (1986) [FLAC]\04 - Squeeze - What Have They Done.wav

Pre-gap length 0:00:00.73

Peak level 87.5 %
Track quality 99.9 %
Test CRC AC2BD72C
Copy CRC AC2BD72C
Copy OK

Track 5
Filename C:\Documents and Settings\Jupiter12\My Documents\_My Torrents\VA - When The Wind Blows (1986) [FLAC]\05 - Paul Hardcastle - The Shuffle.wav

Pre-gap length 0:00:00.56

Peak level 89.3 %
Track quality 100.0 %
Test CRC 80D69192
Copy CRC 80D69192
Copy OK

Track 6
Filename C:\Documents and Settings\Jupiter12\My Documents\_My Torrents\VA - When The Wind Blows (1986) [FLAC]\06 - Roger Waters - When The Wind Blows - Film Score.wav

Pre-gap length 0:00:00.93

Peak level 72.4 %
Track quality 100.0 %
Test CRC 641B956E
Copy CRC 641B956E
Copy OK

No errors occured

End of status report
[CUETools log; Date: 14.11.2010 10:52:39; Version: 2.0.9]
Pregap length 00:00:50.
[CTDB TOCID: fg__4yFW2Hj6Y75.wMGQSZ7OFww-] disk not present in database.
[AccurateRip ID: 0007506a-00297b0f-530a9306] found.
Track [ CRC ] Status
01 [135989cf] (16/28) Accurately ripped
02 [f517b219] (15/26) Accurately ripped
03 [ed2102db] (15/26) Accurately ripped
04 [653e5297] (15/26) Accurately ripped
05 [949321a3] (15/26) Accurately ripped
06 [dc366d98] (15/27) Accurately ripped

Track Peak [ CRC32 ] [W/O NULL] [ LOG ]
-- 96,3 [555A635B] [D0E5616D]
01 91,4 [48B26258] [01D6D751] CRC32
02 96,3 [A808BD4D] [7B20A939] CRC32
03 95,5 [CCED5341] [06FABA08] CRC32
04 87,5 [AC2BD72C] [92682220] CRC32
05 89,3 [80D69192] [5F3BD040] CRC32
06 72,4 [641B956E] [185693E0] CRC32
Label: EMI CDP 7 46865 2 (CD KAOS 1)
01. Radio Waves (4:59)
02. Who Needs Information (5:56)
03. Me Or Him (5:24)
04. The Powers That Be (4:36)
05. Sunset Strip (4:45)
06. Home (6:00)
07. Four Minutes (4:00)
08. The Tide Is Turning (5:44)
Exact Audio Copy V0.99 prebeta 4 from 23. January 2008

EAC extraction logfile from 6. April 2008, 11:23

Roger Waters / Radio K.A.O.S.

Used drive : HL-DT-STDVDRAM GSA-4160B Adapter: 4 ID: 2

Read mode : Secure
Utilize accurate stream : Yes
Defeat audio cache : Yes
Make use of C2 pointers : No

Read offset correction : 667
Overread into Lead-In and Lead-Out : No
Fill up missing offset samples with silence : Yes
Delete leading and trailing silent blocks : No
Null samples used in CRC calculations : Yes
Used interface : Native Win32 interface for Win NT & 2000
Gap handling : Appended to previous track

Used output format : User Defined Encoder
Selected bitrate : 128 kBit/s
Quality : High
Add ID3 tag : No
Command line compressor : C:\Program Files\Exact Audio Copy\Flac\flac.exe
Additional command line options : -8 -V -T "ARTIST=%a" -T "TITLE=%t" -T "ALBUM=%g" -T "DATE=%y" -T "TRACKNUMBER=%n" -T "GENRE=%m" -T "COMMENT=EAC 0.99pb4 FLAC -8" %s

TOC of the extracted CD

Track | Start | Length | Start sector | End sector
---------------------------------------------------------
1 | 0:00.32 | 4:58.55 | 32 | 22436
2 | 4:59.12 | 5:55.48 | 22437 | 49109
3 | 10:54.60 | 5:23.55 | 49110 | 73389
4 | 16:18.40 | 4:36.35 | 73390 | 94124
5 | 20:55.00 | 4:45.27 | 94125 | 115526
6 | 25:40.27 | 6:00.28 | 115527 | 142554
7 | 31:40.55 | 4:00.20 | 142555 | 160574
8 | 35:41.00 | 5:44.10 | 160575 | 186384

Track 1

Filename C:\CD\Roger Waters - Radio K.A.O.S. (1987) [FLAC] {EMI CDP 7 46865 2}\01 - Radio Waves.wav

Pre-gap length 0:00:02.42

Peak level 56.2 %
Track quality 100.0 %
Test CRC 5C90EDBF
Copy CRC 5C90EDBF
Copy OK

Track 2

Filename C:\CD\Roger Waters - Radio K.A.O.S. (1987) [FLAC] {EMI CDP 7 46865 2}\02 - Who Needs Information.wav

Pre-gap length 0:00:00.02

Peak level 95.3 %
Track quality 99.9 %
Test CRC D3BCFE4B
Copy CRC D3BCFE4B
Copy OK

Track 3

Filename C:\CD\Roger Waters - Radio K.A.O.S. (1987) [FLAC] {EMI CDP 7 46865 2}\03 - Me Or Him.wav

Pre-gap length 0:00:00.04

Peak level 81.9 %
Track quality 99.9 %
Test CRC ADE882CD
Copy CRC ADE882CD
Copy OK

Track 4

Filename C:\CD\Roger Waters - Radio K.A.O.S. (1987) [FLAC] {EMI CDP 7 46865 2}\04 - The Powers That Be.wav

Pre-gap length 0:00:00.05

Peak level 85.4 %
Track quality 100.0 %
Test CRC 0EA724BD
Copy CRC 0EA724BD
Copy OK

Track 5

Filename C:\CD\Roger Waters - Radio K.A.O.S. (1987) [FLAC] {EMI CDP 7 46865 2}\05 - Sunset Strip.wav

Pre-gap length 0:00:00.04

Peak level 62.1 %
Track quality 100.0 %
Test CRC 4E40CF69
Copy CRC 4E40CF69
Copy OK

Track 6

Filename C:\CD\Roger Waters - Radio K.A.O.S. (1987) [FLAC] {EMI CDP 7 46865 2}\06 - Home.wav

Pre-gap length 0:00:00.02

Peak level 95.5 %
Track quality 100.0 %
Test CRC 2CCE09B0
Copy CRC 2CCE09B0
Copy OK

Track 7

Filename C:\CD\Roger Waters - Radio K.A.O.S. (1987) [FLAC] {EMI CDP 7 46865 2}\07 - Four Minutes.wav

Pre-gap length 0:00:00.04

Peak level 95.5 %
Track quality 100.0 %
Test CRC D980AE78
Copy CRC D980AE78
Copy OK

Track 8

Filename C:\CD\Roger Waters - Radio K.A.O.S. (1987) [FLAC] {EMI CDP 7 46865 2}\08 - The Tide Is Turning.wav

Pre-gap length 0:00:00.04

Peak level 82.7 %
Track quality 100.0 %
Test CRC 81FD9F9F
Copy CRC 81FD9F9F
Copy OK

No errors occurred

End of status report
Released: September 4, 1990
Recorded Live: July 21, 1990
at Potsdamer Platz in Berlin, Germany
Produced by: Nick Griffiths and Roger Waters
Orchestrated and Conducted by: Michael Kamen
Engineered by: Nigel Jopson
Cover Design by: Mark Norton / 4i Collaboration
Label: Mercury 846 611-2
01. In The Flesh (4:07)
02. The Thin Ice (3:09)
03. Another Brick In The Wall (Part 1) (3:38)
04. The Happiest Days Of Our Lives (1:21)
05. Another Brick In The Wall (Part 2) (6:26)
06. Mother (6:38)
07. Goodbye Blue Sky (3:53)
08. Empty Spaces (3:47)
09. Young Lust (6:09)
10. One Of My Turns (2:45)
11. Don't Leave Me Now (5:12)
12. Another Brick In The Wall (Part 3) (3:25)
13. Goodbye Cruel World (1:38)
Exact Audio Copy V0.99 prebeta 4 from 23. January 2008

EAC extraction logfile from 30. January 2009, 23:05

Roger Waters / The Wall - Live in Berlin (CD1)

Used drive : TSSTcorpCDDVDW SH-S203P Adapter: 4 ID: 0

Read mode : Secure
Utilize accurate stream : Yes
Defeat audio cache : Yes
Make use of C2 pointers : No

Read offset correction : 6
Overread into Lead-In and Lead-Out : No
Fill up missing offset samples with silence : Yes
Delete leading and trailing silent blocks : No
Null samples used in CRC calculations : Yes
Used interface : Native Win32 interface for Win NT & 2000
Gap handling : Appended to previous track

Used output format : User Defined Encoder
Selected bitrate : 768 kBit/s
Quality : High
Add ID3 tag : No
Command line compressor : C:\Program Files (x86)\Exact Audio Copy\FLAC\FLAC.EXE
Additional command line options : -8 -V -T "ARTIST=%a" -T "TITLE=%t" -T "ALBUM=%g" -T "DATE=%y" -T "TRACKNUMBER=%n" -T "GENRE=%m" -T "COMMENT=EAC FLAC -8" %s

TOC of the extracted CD

Track | Start | Length | Start sector | End sector
---------------------------------------------------------
1 | 0:00.33 | 4:06.45 | 33 | 18527
2 | 4:07.03 | 3:08.67 | 18528 | 32694
3 | 7:15.70 | 3:38.00 | 32695 | 49044
4 | 10:53.70 | 1:20.58 | 49045 | 55102
5 | 12:14.53 | 6:26.10 | 55103 | 84062
6 | 18:40.63 | 6:37.70 | 84063 | 113907
7 | 25:18.58 | 3:52.52 | 113908 | 131359
8 | 29:11.35 | 3:47.23 | 131360 | 148407
9 | 32:58.58 | 6:08.42 | 148408 | 176049
10 | 39:07.25 | 2:44.50 | 176050 | 188399
11 | 41:52.00 | 5:11.50 | 188400 | 211774
12 | 47:03.50 | 3:24.63 | 211775 | 227137
13 | 50:28.38 | 1:37.42 | 227138 | 234454

Track 1

Filename C:\Users\Public\Roger Waters - The Wall (Live in Berlin) (1990) [FLAC] {Mercury 846 611-2}\CD 1\01 - In The Flesh.wav

Pre-gap length 0:00:02.44

Peak level 88.4 %
Track quality 100.0 %
Test CRC 477B1898
Copy CRC 477B1898
Accurately ripped (confidence 32) [CA9A349A]
Copy OK

Track 2

Filename C:\Users\Public\Roger Waters - The Wall (Live in Berlin) (1990) [FLAC] {Mercury 846 611-2}\CD 1\02 - The Thin Ice.wav

Peak level 96.4 %
Track quality 100.0 %
Test CRC 1D4A8F2B
Copy CRC 1D4A8F2B
Accurately ripped (confidence 31) [49B87C7E]
Copy OK

Track 3

Filename C:\Users\Public\Roger Waters - The Wall (Live in Berlin) (1990) [FLAC] {Mercury 846 611-2}\CD 1\03 - Another Brick In The Wall (Part 1).wav

Peak level 75.9 %
Track quality 100.0 %
Test CRC 309B986D
Copy CRC 309B986D
Accurately ripped (confidence 31) [8249DADB]
Copy OK

Track 4

Filename C:\Users\Public\Roger Waters - The Wall (Live in Berlin) (1990) [FLAC] {Mercury 846 611-2}\CD 1\04 - The Happiest Days Of Our Lives.wav

Peak level 97.2 %
Track quality 100.0 %
Test CRC 84D57B8E
Copy CRC 84D57B8E
Accurately ripped (confidence 31) [0BAD2DAB]
Copy OK

Track 5

Filename C:\Users\Public\Roger Waters - The Wall (Live in Berlin) (1990) [FLAC] {Mercury 846 611-2}\CD 1\05 - Another Brick In The Wall (Part 2).wav

Peak level 97.2 %
Track quality 100.0 %
Test CRC F3D936E2
Copy CRC F3D936E2
Accurately ripped (confidence 31) [7206C05F]
Copy OK

Track 6

Filename C:\Users\Public\Roger Waters - The Wall (Live in Berlin) (1990) [FLAC] {Mercury 846 611-2}\CD 1\06 - Mother.wav

Peak level 97.2 %
Track quality 100.0 %
Test CRC 2995694E
Copy CRC 2995694E
Accurately ripped (confidence 31) [4F7E9AB6]
Copy OK

Track 7

Filename C:\Users\Public\Roger Waters - The Wall (Live in Berlin) (1990) [FLAC] {Mercury 846 611-2}\CD 1\07 - Goodbye Blue Sky.wav

Peak level 49.1 %
Track quality 100.0 %
Test CRC EA4AE89F
Copy CRC EA4AE89F
Accurately ripped (confidence 31) [AB54C5C6]
Copy OK

Track 8

Filename C:\Users\Public\Roger Waters - The Wall (Live in Berlin) (1990) [FLAC] {Mercury 846 611-2}\CD 1\08 - Empty Spaces.wav

Peak level 99.3 %
Track quality 100.0 %
Test CRC 199500D9
Copy CRC 199500D9
Accurately ripped (confidence 30) [0495359F]
Copy OK

Track 9

Filename C:\Users\Public\Roger Waters - The Wall (Live in Berlin) (1990) [FLAC] {Mercury 846 611-2}\CD 1\09 - Young Lust.wav

Peak level 97.2 %
Track quality 100.0 %
Test CRC 148555ED
Copy CRC 148555ED
Accurately ripped (confidence 31) [92EE8C1A]
Copy OK

Track 10

Filename C:\Users\Public\Roger Waters - The Wall (Live in Berlin) (1990) [FLAC] {Mercury 846 611-2}\CD 1\10 - One Of My Turns.wav

Peak level 94.1 %
Track quality 100.0 %
Test CRC 9150D167
Copy CRC 9150D167
Accurately ripped (confidence 31) [38D37218]
Copy OK

Track 11

Filename C:\Users\Public\Roger Waters - The Wall (Live in Berlin) (1990) [FLAC] {Mercury 846 611-2}\CD 1\11 - Don't Leave Me Now.wav

Peak level 97.2 %
Track quality 100.0 %
Test CRC F56B47EC
Copy CRC F56B47EC
Accurately ripped (confidence 31) [69EDE7BE]
Copy OK

Track 12

Filename C:\Users\Public\Roger Waters - The Wall (Live in Berlin) (1990) [FLAC] {Mercury 846 611-2}\CD 1\12 - Another Brick In The Wall (Part 3).wav

Peak level 100.0 %
Track quality 100.0 %
Test CRC EBABA209
Copy CRC EBABA209
Accurately ripped (confidence 31) [4CD5943F]
Copy OK

Track 13

Filename C:\Users\Public\Roger Waters - The Wall (Live in Berlin) (1990) [FLAC] {Mercury 846 611-2}\CD 1\13 - Goodbye Cruel World.wav

Peak level 47.0 %
Track quality 100.0 %
Test CRC F3CEA43F
Copy CRC F3CEA43F
Accurately ripped (confidence 31) [26B4C00C]
Copy OK

All tracks accurately ripped

No errors occurred

End of status report
Released: September 4, 1990
Recorded Live: July 21, 1990
at Potsdamer Platz in Berlin, Germany
Produced by: Nick Griffiths and Roger Waters
Orchestrated and Conducted by: Michael Kamen
Engineered by: Nigel Jopson
Cover Design by: Mark Norton / 4i Collaboration
Label: Mercury 846 611-2
01. Hey You (5:03)
02. Is There Anybody Out There? (3:02)
03. Nobody Home (4:46)
04. Vera (1:12)
05. Bring The Boys Back Home (2:41)
06. Comfortably Numb (8:02)
07. In The Flesh (5:11)
08. Run Like Hell (4:52)
09. Waiting For The Worms (4:10)
10. Stop (0:23)
11. The Trial (5:52)
12. The Tide Is Turning (After Live Aid) (7:21)
Exact Audio Copy V0.99 prebeta 4 from 23. January 2008

EAC extraction logfile from 30. January 2009, 23:52

Roger Waters / The Wall - Live in Berlin - CD 2

Used drive : TSSTcorpCDDVDW SH-S203P Adapter: 4 ID: 0

Read mode : Secure
Utilize accurate stream : Yes
Defeat audio cache : Yes
Make use of C2 pointers : No

Read offset correction : 6
Overread into Lead-In and Lead-Out : No
Fill up missing offset samples with silence : Yes
Delete leading and trailing silent blocks : No
Null samples used in CRC calculations : Yes
Used interface : Native Win32 interface for Win NT & 2000
Gap handling : Appended to previous track

Used output format : User Defined Encoder
Selected bitrate : 768 kBit/s
Quality : High
Add ID3 tag : No
Command line compressor : C:\Program Files (x86)\Exact Audio Copy\FLAC\FLAC.EXE
Additional command line options : -8 -V -T "ARTIST=%a" -T "TITLE=%t" -T "ALBUM=%g" -T "DATE=%y" -T "TRACKNUMBER=%n" -T "GENRE=%m" -T "COMMENT=EAC FLAC -8" %s

TOC of the extracted CD

Track | Start | Length | Start sector | End sector
---------------------------------------------------------
1 | 0:00.33 | 5:02.40 | 33 | 22722
2 | 5:02.73 | 3:01.70 | 22723 | 36367
3 | 8:04.68 | 4:45.65 | 36368 | 57807
4 | 12:50.58 | 1:11.55 | 57808 | 63187
5 | 14:02.38 | 2:40.50 | 63188 | 75237
6 | 16:43.13 | 8:02.12 | 75238 | 111399
7 | 24:45.25 | 5:10.45 | 111400 | 134694
8 | 29:55.70 | 4:51.48 | 134695 | 156567
9 | 34:47.43 | 4:09.67 | 156568 | 175309
10 | 38:57.35 | 0:23.03 | 175310 | 177037
11 | 39:20.38 | 5:52.30 | 177038 | 203467
12 | 45:12.68 | 7:21.27 | 203468 | 236569

Track 1

Filename C:\Users\Public\Roger Waters - The Wall (Live in Berlin) (1990) [FLAC] {Mercury 846 611-2}\CD 2\01 - Hey You.wav

Pre-gap length 0:00:02.44

Peak level 92.3 %
Track quality 100.0 %
Test CRC 0E013AE9
Copy CRC 0E013AE9
Accurately ripped (confidence 40) [E48CD93E]
Copy OK

Track 2

Filename C:\Users\Public\Roger Waters - The Wall (Live in Berlin) (1990) [FLAC] {Mercury 846 611-2}\CD 2\02 - Is There Anybody Out There .wav

Peak level 37.5 %
Track quality 99.9 %
Test CRC C5801AAC
Copy CRC C5801AAC
Accurately ripped (confidence 39) [5B0C4CAD]
Copy OK

Track 3

Filename C:\Users\Public\Roger Waters - The Wall (Live in Berlin) (1990) [FLAC] {Mercury 846 611-2}\CD 2\03 - Nobody Home.wav

Peak level 85.6 %
Track quality 100.0 %
Test CRC 7D0EDF5B
Copy CRC 7D0EDF5B
Accurately ripped (confidence 38) [B3D5EBFF]
Copy OK

Track 4

Filename C:\Users\Public\Roger Waters - The Wall (Live in Berlin) (1990) [FLAC] {Mercury 846 611-2}\CD 2\04 - Vera.wav

Peak level 59.4 %
Track quality 99.8 %
Test CRC 2AB2AB4D
Copy CRC 2AB2AB4D
Accurately ripped (confidence 39) [9B1E9393]
Copy OK

Track 5

Filename C:\Users\Public\Roger Waters - The Wall (Live in Berlin) (1990) [FLAC] {Mercury 846 611-2}\CD 2\05 - Bring The Boys Back Home.wav

Peak level 88.5 %
Track quality 100.0 %
Test CRC 19825CBD
Copy CRC 19825CBD
Accurately ripped (confidence 39) [07428AD2]
Copy OK

Track 6

Filename C:\Users\Public\Roger Waters - The Wall (Live in Berlin) (1990) [FLAC] {Mercury 846 611-2}\CD 2\06 - Comfortably Numb.wav

Peak level 97.2 %
Track quality 99.9 %
Test CRC C606FF79
Copy CRC C606FF79
Accurately ripped (confidence 38) [33D4069F]
Copy OK

Track 7

Filename C:\Users\Public\Roger Waters - The Wall (Live in Berlin) (1990) [FLAC] {Mercury 846 611-2}\CD 2\07 - In The Flesh.wav

Peak level 97.2 %
Track quality 100.0 %
Test CRC BA709267
Copy CRC BA709267
Accurately ripped (confidence 40) [6A7D47B0]
Copy OK

Track 8

Filename C:\Users\Public\Roger Waters - The Wall (Live in Berlin) (1990) [FLAC] {Mercury 846 611-2}\CD 2\08 - Run Like Hell.wav

Peak level 97.2 %
Track quality 100.0 %
Test CRC F612C5CD
Copy CRC F612C5CD
Accurately ripped (confidence 39) [3C2DB006]
Copy OK

Track 9

Filename C:\Users\Public\Roger Waters - The Wall (Live in Berlin) (1990) [FLAC] {Mercury 846 611-2}\CD 2\09 - Waiting For The Worms.wav

Peak level 97.2 %
Track quality 100.0 %
Test CRC BFE19F3E
Copy CRC BFE19F3E
Accurately ripped (confidence 39) [22291908]
Copy OK

Track 10

Filename C:\Users\Public\Roger Waters - The Wall (Live in Berlin) (1990) [FLAC] {Mercury 846 611-2}\CD 2\10 - Stop.wav

Peak level 96.5 %
Track quality 100.0 %
Test CRC 864DF680
Copy CRC 864DF680
Accurately ripped (confidence 39) [8ACFC461]
Copy OK

Track 11

Filename C:\Users\Public\Roger Waters - The Wall (Live in Berlin) (1990) [FLAC] {Mercury 846 611-2}\CD 2\11 - The Trial.wav

Peak level 91.5 %
Track quality 100.0 %
Test CRC 3DE84079
Copy CRC 3DE84079
Accurately ripped (confidence 39) [55819F76]
Copy OK

Track 12

Filename C:\Users\Public\Roger Waters - The Wall (Live in Berlin) (1990) [FLAC] {Mercury 846 611-2}\CD 2\12 - The Tide Is Turning (After Live Aid).wav

Pre-gap length 0:00:00.44

Peak level 97.2 %
Track quality 100.0 %
Test CRC 982E5EE1
Copy CRC 982E5EE1
Accurately ripped (confidence 38) [6BB81689]
Copy OK

All tracks accurately ripped

No errors occurred

End of status report
Label: Columbia 468761 2
01. The Ballad Of Bill Hubbard (4:20)
02. What God Wants, Part I (6:00)
03. Perfect Sense, Part I (4:16)
04. Perfect Sense, Part II (2:51)
05. The Bravery Of Being Out Of Range (4:43)
06. Late Home Tonight, Part I (4:01)
07. Late Home Tonight, Part II (2:13)
08. Too Much Rope (5:47)
09. What God Wants, Part II (3:42)
10. What God Wants, Part III (4:08)
11. Watching TV (6:08)
12. Three Wishes (6:50)
13. It's A Miracle (8:30)
14. Amused To Death (9:07)
Exact Audio Copy V0.99 prebeta 4 from 23. January 2008

EAC extraction logfile from 8. April 2008, 18:11

Roger Waters / Amused To Death

Used drive : HL-DT-STDVDRAM GSA-4160B Adapter: 4 ID: 2

Read mode : Secure
Utilize accurate stream : Yes
Defeat audio cache : Yes
Make use of C2 pointers : No

Read offset correction : 667
Overread into Lead-In and Lead-Out : No
Fill up missing offset samples with silence : Yes
Delete leading and trailing silent blocks : No
Null samples used in CRC calculations : Yes
Used interface : Native Win32 interface for Win NT & 2000
Gap handling : Appended to previous track

Used output format : User Defined Encoder
Selected bitrate : 128 kBit/s
Quality : High
Add ID3 tag : No
Command line compressor : C:\Program Files\Exact Audio Copy\Flac\flac.exe
Additional command line options : -8 -V -T "ARTIST=%a" -T "TITLE=%t" -T "ALBUM=%g" -T "DATE=%y" -T "TRACKNUMBER=%n" -T "GENRE=%m" -T "COMMENT=EAC 0.99pb4 FLAC -8" %s

TOC of the extracted CD

Track | Start | Length | Start sector | End sector
---------------------------------------------------------
1 | 0:00.00 | 4:19.62 | 0 | 19486
2 | 4:19.62 | 6:00.13 | 19487 | 46499
3 | 10:20.00 | 4:16.05 | 46500 | 65704
4 | 14:36.05 | 2:50.65 | 65705 | 78519
5 | 17:26.70 | 4:43.22 | 78520 | 99766
6 | 22:10.17 | 4:00.50 | 99767 | 117816
7 | 26:10.67 | 2:13.20 | 117817 | 127811
8 | 28:24.12 | 5:47.20 | 127812 | 153856
9 | 34:11.32 | 3:41.45 | 153857 | 170476
10 | 37:53.02 | 4:08.08 | 170477 | 189084
11 | 42:01.10 | 6:07.72 | 189085 | 216681
12 | 48:09.07 | 6:50.20 | 216682 | 247451
13 | 54:59.27 | 8:30.08 | 247452 | 285709
14 | 63:29.35 | 9:06.70 | 285710 | 326729

Track 1

Filename C:\CD\Roger Waters - Amused To Death (1992) [FLAC] {Columbia 468761 2}\01 - The Ballad Of Bill Hubbard.wav

Pre-gap length 0:00:02.00

Peak level 63.9 %
Track quality 100.0 %
Test CRC 78E1F3A4
Copy CRC 78E1F3A4
Copy OK

Track 2

Filename C:\CD\Roger Waters - Amused To Death (1992) [FLAC] {Columbia 468761 2}\02 - What God Wants, Part I.wav

Pre-gap length 0:00:00.02

Peak level 100.0 %
Track quality 100.0 %
Test CRC 6B3F232E
Copy CRC 6B3F232E
Copy OK

Track 3

Filename C:\CD\Roger Waters - Amused To Death (1992) [FLAC] {Columbia 468761 2}\03 - Perfect Sense, Part I.wav

Pre-gap length 0:00:00.04

Peak level 82.6 %
Track quality 100.0 %
Test CRC 244ED7D9
Copy CRC 244ED7D9
Copy OK

Track 4

Filename C:\CD\Roger Waters - Amused To Death (1992) [FLAC] {Columbia 468761 2}\04 - Perfect Sense, Part II.wav

Pre-gap length 0:00:00.04

Peak level 97.2 %
Track quality 100.0 %
Test CRC 66FA5AC6
Copy CRC 66FA5AC6
Copy OK

Track 5

Filename C:\CD\Roger Waters - Amused To Death (1992) [FLAC] {Columbia 468761 2}\05 - The Bravery Of Being Out Of Range.wav

Pre-gap length 0:00:00.04

Peak level 100.0 %
Track quality 100.0 %
Test CRC DCB9AEFC
Copy CRC DCB9AEFC
Copy OK

Track 6

Filename C:\CD\Roger Waters - Amused To Death (1992) [FLAC] {Columbia 468761 2}\06 - Late Home Tonight, Part I.wav

Pre-gap length 0:00:00.02

Peak level 100.0 %
Track quality 100.0 %
Test CRC F0382B8F
Copy CRC F0382B8F
Copy OK

Track 7

Filename C:\CD\Roger Waters - Amused To Death (1992) [FLAC] {Columbia 468761 2}\07 - Late Home Tonight, Part II.wav

Pre-gap length 0:00:00.02

Peak level 48.1 %
Track quality 100.0 %
Test CRC EA60370F
Copy CRC EA60370F
Copy OK

Track 8

Filename C:\CD\Roger Waters - Amused To Death (1992) [FLAC] {Columbia 468761 2}\08 - Too Much Rope.wav

Pre-gap length 0:00:00.02

Peak level 95.1 %
Track quality 100.0 %
Test CRC 334E53CD
Copy CRC 334E53CD
Copy OK

Track 9

Filename C:\CD\Roger Waters - Amused To Death (1992) [FLAC] {Columbia 468761 2}\09 - What God Wants, Part II.wav

Pre-gap length 0:00:00.02

Peak level 85.8 %
Track quality 100.0 %
Test CRC E43A97C7
Copy CRC E43A97C7
Copy OK

Track 10

Filename C:\CD\Roger Waters - Amused To Death (1992) [FLAC] {Columbia 468761 2}\10 - What God Wants, Part III.wav

Pre-gap length 0:00:00.02

Peak level 87.8 %
Track quality 100.0 %
Test CRC A3881938
Copy CRC A3881938
Copy OK

Track 11

Filename C:\CD\Roger Waters - Amused To Death (1992) [FLAC] {Columbia 468761 2}\11 - Watching TV.wav

Pre-gap length 0:00:00.04

Peak level 64.9 %
Track quality 100.0 %
Test CRC 4CCDEAA1
Copy CRC 4CCDEAA1
Copy OK

Track 12

Filename C:\CD\Roger Waters - Amused To Death (1992) [FLAC] {Columbia 468761 2}\12 - Three Wishes.wav

Pre-gap length 0:00:00.02

Peak level 100.0 %
Track quality 100.0 %
Test CRC 1C54069A
Copy CRC 1C54069A
Copy OK

Track 13

Filename C:\CD\Roger Waters - Amused To Death (1992) [FLAC] {Columbia 468761 2}\13 - It's A Miracle.wav

Pre-gap length 0:00:00.02

Peak level 100.0 %
Track quality 100.0 %
Test CRC 73AE6E35
Copy CRC 73AE6E35
Copy OK

Track 14

Filename C:\CD\Roger Waters - Amused To Death (1992) [FLAC] {Columbia 468761 2}\14 - Amused To Death.wav

Pre-gap length 0:00:00.04

Peak level 100.0 %
Track quality 99.9 %
Test CRC 2B8A0653
Copy CRC 2B8A0653
Copy OK

No errors occurred

End of status report

Все спасибы уходят к denonka (Rockhard Lossless)
Download

Скачать (бесплатно и на максимальной скорости)!

Как скачивать  ·   Что такое torrent (торрент)  ·   Рейтинг и ограничения

Сайт не распространяет и не хранит электронные версии произведений, а лишь предоставляет доступ к создаваемому пользователями каталогу ссылок на торрент-файлы, которые содержат только списки хеш-сумм


 

korobok


post 14-Ноя-2010 13:12

 

Product Details:
Audio CD (December 5, 2000)
Original Release Date: December 5, 2000
Number of Discs: 2
Format: Live
Label: Sony
ASIN: B000053EZS
01. In The Flesh (4:42)
02. The Happiest Days Of Our Lives (1:34)
03. Another Brick In The Wall (Part 2) (5:54)
04. Mother (5:37)
05. Get Your Filthy Hands Off My Desert (0:57)
06. Southampton Dock (2:16)
07. Pigs On The Wing (Part 1) (1:18)
08. Dogs (16:27)
09. Welcome To The Machine (6:57)
10. Wish You Were Here (4:55)
11. Shine On You Crazy Diamond (Parts 1-8) (14:43)
12. Set The Controls For The Heart Of The Sun (7:15)
EAC extraction logfile from 23. September 2007, 18:18 for CD
Roger Waters / In The Flesh (Disc 1)

Used drive : BENQ CDRW 5232X Adapter: 1 ID: 0
Read mode : Secure with NO C2, accurate stream, disable cache
Read offset correction : 738
Overread into Lead-In and Lead-Out : No

Used output format : C:\Program Files\FLAC\flac.exe (User Defined Encoder)
320 kBit/s
Additional command line options : -V -8 -T "artist=%a" -T "title=%t" -T "album=%g" -T "date=%y" -T "tracknumber=%n" -T "genre=%m" %s

Other options :
Fill up missing offset samples with silence : Yes
Delete leading and trailing silent blocks : No
Installed external ASPI interface

Track 1
Filename C:\Documents and Settings\Jupiter12\My Documents\_My Torrents\Roger Waters - In The Flesh (2000) [FLAC] (Live)\Disc 1\01 - In The Flesh.wav

Pre-gap length 0:00:02.00

Peak level 100.0 %
Track quality 99.9 %
Test CRC 250E40FE
Copy CRC 250E40FE
Copy OK

Track 2
Filename C:\Documents and Settings\Jupiter12\My Documents\_My Torrents\Roger Waters - In The Flesh (2000) [FLAC] (Live)\Disc 1\02 - The Happiest Days Of Our Lives.wav

Peak level 100.0 %
Track quality 100.0 %
Test CRC 95C00A74
Copy CRC 95C00A74
Copy OK

Track 3
Filename C:\Documents and Settings\Jupiter12\My Documents\_My Torrents\Roger Waters - In The Flesh (2000) [FLAC] (Live)\Disc 1\03 - Another Brick In The Wall (Part 2).wav

Peak level 100.0 %
Track quality 100.0 %
Test CRC 973A8B8D
Copy CRC 973A8B8D
Copy OK

Track 4
Filename C:\Documents and Settings\Jupiter12\My Documents\_My Torrents\Roger Waters - In The Flesh (2000) [FLAC] (Live)\Disc 1\04 - Mother.wav

Peak level 100.0 %
Track quality 100.0 %
Test CRC 6D72855E
Copy CRC 6D72855E
Copy OK

Track 5
Filename C:\Documents and Settings\Jupiter12\My Documents\_My Torrents\Roger Waters - In The Flesh (2000) [FLAC] (Live)\Disc 1\05 - Get Your Filthy Hands Off My Desert.wav

Peak level 99.7 %
Track quality 99.8 %
Test CRC 46C8739F
Copy CRC 46C8739F
Copy OK

Track 6
Filename C:\Documents and Settings\Jupiter12\My Documents\_My Torrents\Roger Waters - In The Flesh (2000) [FLAC] (Live)\Disc 1\06 - Southampton Dock.wav

Peak level 100.0 %
Track quality 100.0 %
Test CRC B694A011
Copy CRC B694A011
Copy OK

Track 7
Filename C:\Documents and Settings\Jupiter12\My Documents\_My Torrents\Roger Waters - In The Flesh (2000) [FLAC] (Live)\Disc 1\07 - Pigs On The Wing (Part 1).wav

Peak level 47.2 %
Track quality 100.0 %
Test CRC 6553A9CC
Copy CRC 6553A9CC
Copy OK

Track 8
Filename C:\Documents and Settings\Jupiter12\My Documents\_My Torrents\Roger Waters - In The Flesh (2000) [FLAC] (Live)\Disc 1\08 - Dogs.wav

Peak level 100.0 %
Track quality 100.0 %
Test CRC 73635058
Copy CRC 73635058
Copy OK

Track 9
Filename C:\Documents and Settings\Jupiter12\My Documents\_My Torrents\Roger Waters - In The Flesh (2000) [FLAC] (Live)\Disc 1\09 - Welcome To The Machine.wav

Peak level 100.0 %
Track quality 100.0 %
Test CRC 286C9F3E
Copy CRC 286C9F3E
Copy OK

Track 10
Filename C:\Documents and Settings\Jupiter12\My Documents\_My Torrents\Roger Waters - In The Flesh (2000) [FLAC] (Live)\Disc 1\10 - Wish You Were Here.wav

Peak level 100.0 %
Track quality 99.9 %
Test CRC 2F8B4B0F
Copy CRC 2F8B4B0F
Copy OK

Track 11
Filename C:\Documents and Settings\Jupiter12\My Documents\_My Torrents\Roger Waters - In The Flesh (2000) [FLAC] (Live)\Disc 1\11 - Shine On You Crazy Diamond (Parts 1-8).wav

Peak level 100.0 %
Track quality 100.0 %
Test CRC 1EE5A8AE
Copy CRC 1EE5A8AE
Copy OK

Track 12
Filename C:\Documents and Settings\Jupiter12\My Documents\_My Torrents\Roger Waters - In The Flesh (2000) [FLAC] (Live)\Disc 1\12 - Set The Controls For The Heart Of The Sun.wav

Peak level 100.0 %
Track quality 99.9 %
Test CRC 39C33DEA
Copy CRC 39C33DEA
Copy OK

No errors occured

End of status report
[CUETools log; Date: 14.11.2010 11:05:28; Version: 2.0.9]
[CTDB TOCID: CL7dMcgs.Fids66hMIm8uoYzmcg-] disk not present in database.
[AccurateRip ID: 0019ceec-00fd95d5-9811020c] found.
Track [ CRC ] Status
01 [1059348c] (59/66) Accurately ripped
02 [def7af38] (58/65) Accurately ripped
03 [31cf0393] (57/64) Accurately ripped
04 [de21971c] (54/61) Accurately ripped
05 [5dee5378] (56/63) Accurately ripped
06 [8d876307] (56/63) Accurately ripped
07 [0b5a981f] (57/64) Accurately ripped
08 [cac0acc1] (54/61) Accurately ripped
09 [a442464f] (57/64) Accurately ripped
10 [91bce150] (57/64) Accurately ripped
11 [ae98e472] (55/61) Accurately ripped
12 [fe80d6c5] (57/64) Accurately ripped
Offsetted by -3:
01 [b6dbc75f] (07/66) Accurately ripped
02 [e7841cbe] (07/65) Accurately ripped
03 [860b20fd] (07/64) Accurately ripped
04 [11a75d48] (07/61) Accurately ripped
05 [560705b3] (07/63) Accurately ripped
06 [478600f1] (07/63) Accurately ripped
07 [87075d56] (07/64) Accurately ripped
08 [4e387c27] (07/61) Accurately ripped
09 [6fbafea4] (07/64) Accurately ripped
10 [80fb62fe] (07/64) Accurately ripped
11 [0906d8bc] (06/61) Accurately ripped
12 [38cfa223] (07/64) Accurately ripped

Track Peak [ CRC32 ] [W/O NULL] [ LOG ]
-- 100,0 [88604821] [E2D109F4]
01 100,0 [250E40FE] [AEF85E14] CRC32
02 100,0 [95C00A74] [F2B6FDA9] CRC32
03 100,0 [973A8B8D] [9C18A97E] CRC32
04 100,0 [6D72855E] [4B8B5229] CRC32
05 99,7 [46C8739F] [811A3A03] CRC32
06 100,0 [B694A011] [9491A14E] CRC32
07 47,2 [6553A9CC] [BE624E27] CRC32
08 100,0 [73635058] [E222BD5C] CRC32
09 100,0 [286C9F3E] [92F7D11F] CRC32
10 100,0 [2F8B4B0F] [424391DE] CRC32
11 99,9 [1EE5A8AE] [78EC332B] CRC32
12 100,0 [39C33DEA] [DF338073] CRC32
Product Details:
Audio CD (December 5, 2000)
Original Release Date: December 5, 2000
Number of Discs: 2
Format: Live
Label: Sony
ASIN: B000053EZS
01. Breathe (3:22)
02. Time (6:24)
03. Money (6:12)
04. Every Stranger's Eyes) (5:20)
05. Perfect Sense (Parts I & II) (7:26)
06. The Bravery Of Being Out Of Range (5:05)
07. It's A Miracle (8:12)
08. Amused To Death (9:24)
09. Brain Damage (4:07)
10. Eclipse (2:19)
11. Comfortably Numb (8:10)
12. Each Small Candle (9:09)
EAC extraction logfile from 23. September 2007, 19:32 for CD
Roger Waters / In The Flesh (disc 2)

Used drive : BENQ CDRW 5232X Adapter: 1 ID: 0
Read mode : Secure with NO C2, accurate stream, disable cache
Read offset correction : 738
Overread into Lead-In and Lead-Out : No

Used output format : C:\Program Files\FLAC\flac.exe (User Defined Encoder)
320 kBit/s
Additional command line options : -V -8 -T "artist=%a" -T "title=%t" -T "album=%g" -T "date=%y" -T "tracknumber=%n" -T "genre=%m" %s

Other options :
Fill up missing offset samples with silence : Yes
Delete leading and trailing silent blocks : No
Installed external ASPI interface

Track 1
Filename C:\Documents and Settings\Jupiter12\My Documents\_My Torrents\Roger Waters - In The Flesh (2000) [FLAC] (Live)\Disc 2\01 - Breathe.wav

Pre-gap length 0:00:02.00

Peak level 99.9 %
Track quality 100.0 %
Test CRC B786DDEB
Copy CRC B786DDEB
Copy OK

Track 2
Filename C:\Documents and Settings\Jupiter12\My Documents\_My Torrents\Roger Waters - In The Flesh (2000) [FLAC] (Live)\Disc 2\02 - Time.wav

Peak level 100.0 %
Track quality 100.0 %
Test CRC DE7D7260
Copy CRC DE7D7260
Copy OK

Track 3
Filename C:\Documents and Settings\Jupiter12\My Documents\_My Torrents\Roger Waters - In The Flesh (2000) [FLAC] (Live)\Disc 2\03 - Money.wav

Peak level 100.0 %
Track quality 100.0 %
Test CRC 791C042D
Copy CRC 791C042D
Copy OK

Track 4
Filename C:\Documents and Settings\Jupiter12\My Documents\_My Torrents\Roger Waters - In The Flesh (2000) [FLAC] (Live)\Disc 2\04 - Every Stranger's Eyes).wav

Peak level 100.0 %
Track quality 100.0 %
Test CRC 7ABA0A0A
Copy CRC 7ABA0A0A
Copy OK

Track 5
Filename C:\Documents and Settings\Jupiter12\My Documents\_My Torrents\Roger Waters - In The Flesh (2000) [FLAC] (Live)\Disc 2\05 - Perfect Sense (Parts I & II).wav

Peak level 100.0 %
Track quality 100.0 %
Test CRC 544327ED
Copy CRC 544327ED
Copy OK

Track 6
Filename C:\Documents and Settings\Jupiter12\My Documents\_My Torrents\Roger Waters - In The Flesh (2000) [FLAC] (Live)\Disc 2\06 - The Bravery Of Being Out Of Range.wav

Peak level 100.0 %
Track quality 100.0 %
Test CRC DC1BB699
Copy CRC DC1BB699
Copy OK

Track 7
Filename C:\Documents and Settings\Jupiter12\My Documents\_My Torrents\Roger Waters - In The Flesh (2000) [FLAC] (Live)\Disc 2\07 - It's A Miracle.wav

Peak level 100.0 %
Track quality 100.0 %
Test CRC 10E71C2B
Copy CRC 10E71C2B
Copy OK

Track 8
Filename C:\Documents and Settings\Jupiter12\My Documents\_My Torrents\Roger Waters - In The Flesh (2000) [FLAC] (Live)\Disc 2\08 - Amused To Death.wav

Peak level 98.8 %
Track quality 100.0 %
Test CRC 9E0F9A44
Copy CRC 9E0F9A44
Copy OK

Track 9
Filename C:\Documents and Settings\Jupiter12\My Documents\_My Torrents\Roger Waters - In The Flesh (2000) [FLAC] (Live)\Disc 2\09 - Brain Damage.wav

Peak level 93.9 %
Track quality 99.9 %
Test CRC F5A975BA
Copy CRC F5A975BA
Copy OK

Track 10
Filename C:\Documents and Settings\Jupiter12\My Documents\_My Torrents\Roger Waters - In The Flesh (2000) [FLAC] (Live)\Disc 2\10 - Eclipse.wav

Peak level 100.0 %
Track quality 100.0 %
Test CRC 0520E0A3
Copy CRC 0520E0A3
Copy OK

Track 11
Filename C:\Documents and Settings\Jupiter12\My Documents\_My Torrents\Roger Waters - In The Flesh (2000) [FLAC] (Live)\Disc 2\11 - Comfortably Numb.wav

Peak level 100.0 %
Track quality 99.9 %
Test CRC F9B78EA1
Copy CRC F9B78EA1
Copy OK

Track 12
Filename C:\Documents and Settings\Jupiter12\My Documents\_My Torrents\Roger Waters - In The Flesh (2000) [FLAC] (Live)\Disc 2\12 - Each Small Candle.wav

Peak level 100.0 %
Track quality 100.0 %
Test CRC BCB30FA7
Copy CRC BCB30FA7
Copy OK

No errors occured

End of status report
[CUETools log; Date: 14.11.2010 11:07:42; Version: 2.0.9]
[CTDB TOCID: F3p7VDGdG_FD2O5Fo5KxFgf7RNo-] disk not present in database.
[AccurateRip ID: 001fa875-012c8082-a7119e0c] found.
Track [ CRC ] Status
01 [3b875b06] (64/64) Accurately ripped
02 [c40b680e] (64/64) Accurately ripped
03 [ce93a34a] (64/64) Accurately ripped
04 [7fa7f240] (64/64) Accurately ripped
05 [8de69a69] (62/62) Accurately ripped
06 [872ee0ba] (63/63) Accurately ripped
07 [3c08ac89] (64/64) Accurately ripped
08 [f9f478ae] (64/64) Accurately ripped
09 [2948d2c5] (64/64) Accurately ripped
10 [d323fef3] (64/64) Accurately ripped
11 [7ff42565] (64/64) Accurately ripped
12 [c7fac88b] (63/63) Accurately ripped

Track Peak [ CRC32 ] [W/O NULL] [ LOG ]
-- 100,0 [4B13E9A4] [39B7C9DC]
01 99,9 [B786DDEB] [CE7C590F] CRC32
02 100,0 [DE7D7260] [8F21AED9] CRC32
03 100,0 [791C042D] [820D6ADF] CRC32
04 100,0 [7ABA0A0A] [C5DF02E2] CRC32
05 100,0 [544327ED] [AF8B7DCE] CRC32
06 100,0 [DC1BB699] [7A8B1301] CRC32
07 100,0 [10E71C2B] [8086C34C] CRC32
08 98,8 [9E0F9A44] [A37F27C0] CRC32
09 93,9 [F5A975BA] [D4D13E08] CRC32
10 100,0 [0520E0A3] [6A79049F] CRC32
11 100,0 [F9B78EA1] [093317B6] CRC32
12 100,0 [BCB30FA7] [8DE910AE] CRC32


00. Hidden Track (0:08)
01. Knockin' On Heaven's Door (4:07)
02. Too Much Rope (5:12)
03. The Tide Is Turning (5:25)
04. Perfect Sense Part I & II (7:22)
05. Three Wishes (6:49)
06. 5.06Am (Every Stranger's Eyes) (4:48)
07. Who Needs Information (5:55)
08. Each Small Candle (8:35)
09. Flickering Flame (New Demo) (6:45)
10. Towers Of Faith (6:52)
11. Radio Waves (4:31)
12. Lost Boys Calling (Original Demo) (4:04)
EAC extraction logfile from 7. December 2007, 16:29 for CD
Roger Waters / Flickering Flame - The Solo Years Volume I

Used drive : PLEXTOR CD-R PREMIUM Adapter: 1 ID: 0
Read mode : Secure with NO C2, accurate stream, disable cache
Read offset correction : 30
Overread into Lead-In and Lead-Out : Yes

Used output format : C:\Program\Exact Audio Copy\FLAC\flac.exe (User Defined Encoder)
320 kBit/s
Additional command line options : -8 -V -T "ARTIST=%a" -T "TITLE=%t" -T "ALBUM=%g" -T "DATE=%y" -T "TRACKNUMBER=%n" -T "GENRE=%m" -T "COMMENT=EAC Flac 1.1.4 -8" %s

Other options :
Fill up missing offset samples with silence : Yes
Delete leading and trailing silent blocks : No
Installed external ASPI interface

Track 1
Filename G:\new cd-rips\Roger Waters - Flickering Flame - The Solo Years Volume I (2002) [FLAC]\01 - Knockin' On Heaven's Door.wav

Pre-gap length 0:00:10.00

Peak level 63.8 %
Track quality 100.0 %
Test CRC 494CD00D
Copy CRC 494CD00D
Copy OK

Track 2
Filename G:\new cd-rips\Roger Waters - Flickering Flame - The Solo Years Volume I (2002) [FLAC]\02 - Too Much Rope.wav

Peak level 95.1 %
Track quality 100.0 %
Test CRC 76A7FD23
Copy CRC 76A7FD23
Copy OK

Track 3
Filename G:\new cd-rips\Roger Waters - Flickering Flame - The Solo Years Volume I (2002) [FLAC]\03 - The Tide Is Turning.wav

Peak level 70.4 %
Track quality 100.0 %
Test CRC 6AFC3123
Copy CRC 6AFC3123
Copy OK

Track 4
Filename G:\new cd-rips\Roger Waters - Flickering Flame - The Solo Years Volume I (2002) [FLAC]\04 - Perfect Sense Part I & II.wav

Peak level 89.1 %
Track quality 99.9 %
Test CRC 0580DF4D
Copy CRC 0580DF4D
Copy OK

Track 5
Filename G:\new cd-rips\Roger Waters - Flickering Flame - The Solo Years Volume I (2002) [FLAC]\05 - Three Wishes.wav

Peak level 100.0 %
Track quality 100.0 %
Test CRC BBFD8E53
Copy CRC BBFD8E53
Copy OK

Track 6
Filename G:\new cd-rips\Roger Waters - Flickering Flame - The Solo Years Volume I (2002) [FLAC]\06 - 5.06Am (Every Stranger's Eyes).wav

Peak level 90.0 %
Track quality 99.9 %
Test CRC E495AF67
Copy CRC E495AF67
Copy OK

Track 7
Filename G:\new cd-rips\Roger Waters - Flickering Flame - The Solo Years Volume I (2002) [FLAC]\07 - Who Needs Information.wav

Peak level 84.1 %
Track quality 100.0 %
Test CRC 7F88CBD7
Copy CRC 7F88CBD7
Copy OK

Track 8
Filename G:\new cd-rips\Roger Waters - Flickering Flame - The Solo Years Volume I (2002) [FLAC]\08 - Each Small Candle.wav

Peak level 100.0 %
Track quality 99.9 %
Test CRC 09B99506
Copy CRC 09B99506
Copy OK

Track 9
Filename G:\new cd-rips\Roger Waters - Flickering Flame - The Solo Years Volume I (2002) [FLAC]\09 - Flickering Flame (New Demo).wav

Peak level 88.0 %
Track quality 100.0 %
Test CRC 1CF90D50
Copy CRC 1CF90D50
Copy OK

Track 10
Filename G:\new cd-rips\Roger Waters - Flickering Flame - The Solo Years Volume I (2002) [FLAC]\10 - Towers Of Faith.wav

Peak level 75.7 %
Track quality 100.0 %
Test CRC 97BF74A2
Copy CRC 97BF74A2
Copy OK

Track 11
Filename G:\new cd-rips\Roger Waters - Flickering Flame - The Solo Years Volume I (2002) [FLAC]\11 - Radio Waves.wav

Peak level 75.8 %
Track quality 100.0 %
Test CRC FB43BB75
Copy CRC FB43BB75
Copy OK

Track 12
Filename G:\new cd-rips\Roger Waters - Flickering Flame - The Solo Years Volume I (2002) [FLAC]\12 - Lost Boys Calling (Original Demo).wav

Peak level 62.6 %
Track quality 100.0 %
Test CRC 5BF2EC97
Copy CRC 5BF2EC97
Copy OK

No errors occured

End of status report
[CUETools log; Date: 14.11.2010 11:11:05; Version: 2.0.9]
Pregap length 00:08:00.
CD-Extra data track length 00:07:59 - 00:08:58.
[CTDB TOCID: 77o12gdUnfGj_D45bTbQFAxpuC4-] disk not present in database.
[AccurateRip ID: 001f7bd1-012ad712-c511190d] disk not present in database.

Track Peak [ CRC32 ] [W/O NULL]
-- 100,0 [EDE7DAA3] [D268C395]
01 63,8 [494CD00D] [6DF7B302]
02 95,1 [76A7FD23] [53C574C0]
03 70,4 [6AFC3123] [75090500]
04 89,1 [0580DF4D] [4D0B91F1]
05 100,0 [BBFD8E53] [931DC9B8]
06 90,0 [E495AF67] [F3D26519]
07 84,1 [7F88CBD7] [E5BDE9C6]
08 100,0 [09B99506] [0DC64BD4]
09 88,0 [1CF90D50] [16EC6450]
10 75,7 [97BF74A2] [6F231AB2]
11 75,8 [FB43BB75] [8D37BAA7]
12 62,6 [5BF2EC97] [81FE0A61]
Released: September 27, 2005 (AMG says: October 4)
01. Act One. 'The Gathering Storm' (1:38)
02. 'Overture' (4:07)
03. Scene 1: A Garden In Vienna 1765 (0:54)
04. 'Madame Antoine, Madame Antoine' (2:54)
05. Scene 2: Kings, Sticks And Birds (2:40)
06. 'Honest Bird, Simple Bird' (2:10)
07. 'I Want To Be King' (2:38)
08. 'Let Us Break All The Shields' (1:46)
09. Scene 3: The Grievances Of The People (4:39)
10. Scene 4: France In Disarray (2:35)
11. 'To Laugh Is To Know How To Live' (1:44)
12. 'Slavers, Landlords, Bigots At Your Door' (3:37)
13. Scene 5: The Fall Of The Bastille (1:35)
14. 'To Freeze In The Dead Of Night' (2:19)
15. 'So To The Streets In The Pouring Rain' (4:17)
16. Act Two. Scene 1: Dances And Marches (2:12)
17. 'Now Hear Ye!' (2:18)
18. 'Flushed With Wine' (4:32)
19. Scene 2: The Letter (1:38)
20. 'My Dear Cousin Bourbon Of Spain' (2:49)
21. 'The Ship Of State Is All At Sea' (1:47)
22. Scene 3: Silver, Sugar And Indigo (0:55)
23. 'To The Windward Isles' (4:50)
24. Scene 4: The Papal Edict (1:18)
25. 'In Paris There'S A Rumble Under The Ground' (6:21)
EAC extraction logfile from 1. October 2005, 18:45 for CD
Ca Ira / Roger Waters

Used drive : PLEXTOR DVD-ROM PX-116A2 Adapter: 1 ID: 0
Read mode : Secure with NO C2, accurate stream, disable cache
Read offset correction : 102
Overread into Lead-In and Lead-Out : No

Used output format : Internal WAV Routines
44.100 Hz; 16 Bit; Stereo

Other options :
Fill up missing offset samples with silence : Yes
Delete leading and trailing silent blocks : No
Installed external ASPI interface

Track 1
Filename D:\Rip\Roger Waters - Ca Ira (2005) [WAV] {CD Version}\Disc 1 of 2\01 - Ca Ira - Opera in Three Acts, The Gathering Storm.wav

Pre-gap length 0:00:02.00

Peak level 12.7 %
Track quality 100.0 %
Test CRC C19CDAD6
Copy CRC C19CDAD6
Copy OK

Track 2
Filename D:\Rip\Roger Waters - Ca Ira (2005) [WAV] {CD Version}\Disc 1 of 2\02 - Overture.wav

Peak level 80.7 %
Track quality 100.0 %
Test CRC 6529C50C
Copy CRC 6529C50C
Copy OK

Track 3
Filename D:\Rip\Roger Waters - Ca Ira (2005) [WAV] {CD Version}\Disc 1 of 2\03 - A Garden in Vienna 1765.wav

Peak level 16.8 %
Track quality 100.0 %
Test CRC 87923801
Copy CRC 87923801
Copy OK

Track 4
Filename D:\Rip\Roger Waters - Ca Ira (2005) [WAV] {CD Version}\Disc 1 of 2\04 - Madame Antoine, Madame Antoine.wav

Peak level 18.6 %
Track quality 100.0 %
Test CRC 53ACD715
Copy CRC 53ACD715
Copy OK

Track 5
Filename D:\Rip\Roger Waters - Ca Ira (2005) [WAV] {CD Version}\Disc 1 of 2\05 - Kings, Sticks and Birds.wav

Peak level 57.7 %
Track quality 100.0 %
Test CRC 8463F125
Copy CRC 8463F125
Copy OK

Track 6
Filename D:\Rip\Roger Waters - Ca Ira (2005) [WAV] {CD Version}\Disc 1 of 2\06 - Honest bird, simple bird.wav

Peak level 34.6 %
Track quality 100.0 %
Test CRC 6EB9943D
Copy CRC 6EB9943D
Copy OK

Track 7
Filename D:\Rip\Roger Waters - Ca Ira (2005) [WAV] {CD Version}\Disc 1 of 2\07 - I want to be King.wav

Peak level 76.4 %
Track quality 100.0 %
Test CRC D7087165
Copy CRC D7087165
Copy OK

Track 8
Filename D:\Rip\Roger Waters - Ca Ira (2005) [WAV] {CD Version}\Disc 1 of 2\08 - Let us break all the shields.wav

Peak level 91.2 %
Track quality 100.0 %
Test CRC 0DA656A3
Copy CRC 0DA656A3
Copy OK

Track 9
Filename D:\Rip\Roger Waters - Ca Ira (2005) [WAV] {CD Version}\Disc 1 of 2\09 - The Grievances of the People.wav

Peak level 75.6 %
Track quality 100.0 %
Test CRC 9A7FF81C
Copy CRC 9A7FF81C
Copy OK

Track 10
Filename D:\Rip\Roger Waters - Ca Ira (2005) [WAV] {CD Version}\Disc 1 of 2\10 - France in Disarry.wav

Peak level 67.2 %
Track quality 100.0 %
Test CRC C6809E9D
Copy CRC C6809E9D
Copy OK

Track 11
Filename D:\Rip\Roger Waters - Ca Ira (2005) [WAV] {CD Version}\Disc 1 of 2\11 - To laugh is to know how to live.wav

Peak level 13.3 %
Track quality 99.8 %
Test CRC 1913964E
Copy CRC 1913964E
Copy OK

Track 12
Filename D:\Rip\Roger Waters - Ca Ira (2005) [WAV] {CD Version}\Disc 1 of 2\12 - Slavers, Landlords, Bigots at your door.wav

Peak level 59.1 %
Track quality 100.0 %
Test CRC F59F22A0
Copy CRC F59F22A0
Copy OK

Track 13
Filename D:\Rip\Roger Waters - Ca Ira (2005) [WAV] {CD Version}\Disc 1 of 2\13 - The Fall of the Bastille.wav

Peak level 55.1 %
Track quality 100.0 %
Test CRC 6AAD3B93
Copy CRC 6AAD3B93
Copy OK

Track 14
Filename D:\Rip\Roger Waters - Ca Ira (2005) [WAV] {CD Version}\Disc 1 of 2\14 - To freeze in the dead of night.wav

Peak level 31.8 %
Track quality 100.0 %
Test CRC 1DADE037
Copy CRC 1DADE037
Copy OK

Track 15
Filename D:\Rip\Roger Waters - Ca Ira (2005) [WAV] {CD Version}\Disc 1 of 2\15 - So to the streets in the pouring rain.wav

Peak level 88.8 %
Track quality 100.0 %
Test CRC A15E80CC
Copy CRC A15E80CC
Copy OK

Track 16
Filename D:\Rip\Roger Waters - Ca Ira (2005) [WAV] {CD Version}\Disc 1 of 2\16 - Dances and Marches.wav

Peak level 36.7 %
Track quality 100.0 %
Test CRC 13CAB463
Copy CRC 13CAB463
Copy OK

Track 17
Filename D:\Rip\Roger Waters - Ca Ira (2005) [WAV] {CD Version}\Disc 1 of 2\17 - Now Hear Ye.wav

Peak level 82.4 %
Track quality 100.0 %
Test CRC 4260B12A
Copy CRC 4260B12A
Copy OK

Track 18
Filename D:\Rip\Roger Waters - Ca Ira (2005) [WAV] {CD Version}\Disc 1 of 2\18 - Flushed with wine.wav

Peak level 89.1 %
Track quality 100.0 %
Test CRC 069E9F8F
Copy CRC 069E9F8F
Copy OK

Track 19
Filename D:\Rip\Roger Waters - Ca Ira (2005) [WAV] {CD Version}\Disc 1 of 2\19 - The Letter.wav

Peak level 31.5 %
Track quality 100.0 %
Test CRC 4C3FD8C1
Copy CRC 4C3FD8C1
Copy OK

Track 20
Filename D:\Rip\Roger Waters - Ca Ira (2005) [WAV] {CD Version}\Disc 1 of 2\20 - My dear Cousin Bourbon of Spain.wav

Peak level 51.8 %
Track quality 100.0 %
Test CRC 3A1E1C49
Copy CRC 3A1E1C49
Copy OK

Track 21
Filename D:\Rip\Roger Waters - Ca Ira (2005) [WAV] {CD Version}\Disc 1 of 2\21 - The ship of state is all at sea.wav

Peak level 39.0 %
Track quality 100.0 %
Test CRC 31123195
Copy CRC 31123195
Copy OK

Track 22
Filename D:\Rip\Roger Waters - Ca Ira (2005) [WAV] {CD Version}\Disc 1 of 2\22 - Silver, Sugar and Indigo.wav

Peak level 42.0 %
Track quality 99.8 %
Test CRC 71254D73
Copy CRC 71254D73
Copy OK

Track 23
Filename D:\Rip\Roger Waters - Ca Ira (2005) [WAV] {CD Version}\Disc 1 of 2\23 - To the Windward Isles.wav

Peak level 96.6 %
Track quality 99.9 %
Test CRC 999A5881
Copy CRC 999A5881
Copy OK

Track 24
Filename D:\Rip\Roger Waters - Ca Ira (2005) [WAV] {CD Version}\Disc 1 of 2\24 - The Papal Edict.wav

Peak level 32.8 %
Track quality 100.0 %
Test CRC CDC402DD
Copy CRC CDC402DD
Copy OK

Track 25
Filename D:\Rip\Roger Waters - Ca Ira (2005) [WAV] {CD Version}\Disc 1 of 2\25 - In Paris there's a rumble under the ground.wav

Peak level 92.7 %
Track quality 100.0 %
Test CRC 4CE2E271
Copy CRC 4CE2E271
Copy OK

No errors occured

End of status report
[CUETools log; Date: 14.11.2010 11:12:29; Version: 2.0.9]
[CTDB TOCID: jLW9d.RmxNLxhDZRSDf5QI84Jk8-] found.
[ CTDBID ] Status
[abf7b93b] (58/58) Accurately ripped
[AccurateRip ID: 0039c6d4-04186d82-770ffe19] found.
Track [ CRC ] Status
01 [6da17ecc] (16/69) Accurately ripped
02 [975a31d5] (16/69) Accurately ripped
03 [4a1b5d41] (16/68) Accurately ripped
04 [1e1fe675] (16/69) Accurately ripped
05 [7f88d0a5] (16/69) Accurately ripped
06 [52d5a8f6] (16/69) Accurately ripped
07 [9e125eaf] (16/69) Accurately ripped
08 [e6edebf5] (16/67) Accurately ripped
09 [dc231e90] (16/69) Accurately ripped
10 [7dc4d6a6] (16/70) Accurately ripped
11 [08529636] (16/69) Accurately ripped
12 [3b628f0a] (16/69) Accurately ripped
13 [13c05a54] (16/69) Accurately ripped
14 [d248854c] (16/69) Accurately ripped
15 [55fb2b7b] (16/68) Accurately ripped
16 [cf51d075] (16/69) Accurately ripped
17 [c00406bf] (16/69) Accurately ripped
18 [daf7ff2b] (16/69) Accurately ripped
19 [506b3d0c] (16/69) Accurately ripped
20 [b3e1ed77] (16/68) Accurately ripped
21 [01aad2b2] (16/67) Accurately ripped
22 [8918f636] (16/67) Accurately ripped
23 [69539bfe] (16/67) Accurately ripped
24 [eb26de57] (16/68) Accurately ripped
25 [f2018cce] (16/66) Accurately ripped
Offsetted by -712:
01 [f1602589] (02/69) Accurately ripped
02 [d816c807] (02/69) Accurately ripped
03 [6cc0500b] (02/68) Accurately ripped
04 [846a75e4] (02/69) Accurately ripped
05 [d891e221] (02/69) Accurately ripped
06 [2fb581fd] (02/69) Accurately ripped
07 [0a1f1eec] (02/69) Accurately ripped
08 [6417ade9] (02/67) Accurately ripped
09 [5495767d] (02/69) Accurately ripped
10 [83b69a6c] (02/70) Accurately ripped
11 [18ca065d] (02/69) Accurately ripped
12 [ce4983cd] (02/69) Accurately ripped
13 [73fb64bc] (02/69) Accurately ripped
14 [a754ce66] (02/69) Accurately ripped
15 [61ecb1f1] (02/68) Accurately ripped
16 [3fc716b9] (02/69) Accurately ripped
17 [ed42475a] (02/69) Accurately ripped
18 [4a63fc8b] (02/69) Accurately ripped
19 [58ca3b43] (02/69) Accurately ripped
20 [af8b190d] (02/68) Accurately ripped
21 [147a0fa0] (02/67) Accurately ripped
22 [41267b40] (02/67) Accurately ripped
23 [53763ae0] (02/67) Accurately ripped
24 [5feff92d] (02/68) Accurately ripped
25 [96f02434] (02/66) Accurately ripped
Offsetted by -682:
01 [46a62dd6] (40/69) Accurately ripped
02 [578e7c5a] (40/69) Accurately ripped
03 [f4d531d2] (40/68) Accurately ripped
04 [deaa14e4] (40/69) Accurately ripped
05 [4cc61a73] (40/69) Accurately ripped
06 [6bc1ad54] (40/69) Accurately ripped
07 [1fd584c3] (40/69) Accurately ripped
08 [97a00f6f] (40/67) Accurately ripped
09 [c9ef2dce] (40/69) Accurately ripped
10 [d1625e02] (41/70) Accurately ripped
11 [751882e4] (40/69) Accurately ripped
12 [1ffbfbe9] (40/69) Accurately ripped
13 [66823b64] (40/69) Accurately ripped
14 [dbf68b1b] (40/69) Accurately ripped
15 [adc36275] (40/68) Accurately ripped
16 [a2d3dea7] (40/69) Accurately ripped
17 [ef3024d1] (40/69) Accurately ripped
18 [26d34ac8] (40/69) Accurately ripped
19 [88067cfe] (40/69) Accurately ripped
20 [fe711331] (40/68) Accurately ripped
21 [31f3a521] (40/67) Accurately ripped
22 [e93203ca] (40/67) Accurately ripped
23 [0c66ef4a] (40/67) Accurately ripped
24 [20958180] (40/68) Accurately ripped
25 [d33bc8fd] (37/66) Accurately ripped
Offsetted by -36:
01 [1bd29c83] (09/69) Accurately ripped
02 [034f15d0] (09/69) Accurately ripped
03 [246b75f5] (08/68) Accurately ripped
04 [20a48456] (09/69) Accurately ripped
05 [77797c4c] (09/69) Accurately ripped
06 [20b1af08] (09/69) Accurately ripped
07 [e2620133] (09/69) Accurately ripped
08 [ac203b83] (09/67) Accurately ripped
09 [1d156170] (09/69) Accurately ripped
10 [e7133731] (09/70) Accurately ripped
11 [5fae2f1b] (09/69) Accurately ripped
12 [bb990a65] (09/69) Accurately ripped
13 [a09739c2] (09/69) Accurately ripped
14 [535bcba0] (09/69) Accurately ripped
15 [b24b46c7] (08/68) Accurately ripped
16 [1a687aee] (09/69) Accurately ripped
17 [e852c83c] (09/69) Accurately ripped
18 [ddd4cd94] (09/69) Accurately ripped
19 [72161797] (09/69) Accurately ripped
20 [7ac54e93] (08/68) Accurately ripped
21 [5f04b24f] (09/67) Accurately ripped
22 [e5de0c67] (09/67) Accurately ripped
23 [8d4fd6e7] (09/67) Accurately ripped
24 [baefb40e] (08/68) Accurately ripped
25 [92ba634b] (09/66) Accurately ripped
Offsetted by -1346:
01 [7d880065] (02/69) Accurately ripped
02 [3355b4ba] (02/69) Accurately ripped
03 [9e57f897] (02/68) Accurately ripped
04 [fe651695] (02/69) Accurately ripped
05 [21a9ed12] (02/69) Accurately ripped
06 [0c47bb84] (02/69) Accurately ripped
07 [1527cf07] (02/69) Accurately ripped
08 [3276d438] (02/67) No match but offset
09 [e6686901] (02/69) Accurately ripped
10 [6c2fe767] (02/70) Accurately ripped
11 [da6dd2b1] (02/69) Accurately ripped
12 [f104fa3d] (02/69) Accurately ripped
13 [f8a47c07] (02/69) Accurately ripped
14 [43be53fd] (02/69) Accurately ripped
15 [d1a0cce0] (02/68) Accurately ripped
16 [187c2ef0] (02/69) Accurately ripped
17 [b29d0011] (02/69) Accurately ripped
18 [a01da0b5] (02/69) Accurately ripped
19 [4d6c4ab5] (02/69) Accurately ripped
20 [bcf5811a] (02/68) Accurately ripped
21 [00ee3bd9] (02/67) No match but offset
22 [045ad5b6] (02/67) No match but offset
23 [4f096c7a] (02/67) No match but offset
24 [f1fc9e8b] (02/68) Accurately ripped
25 [89647491] (02/66) Accurately ripped

Track Peak [ CRC32 ] [W/O NULL]
-- 96,6 [E4A3654F] [8D1D0718]
01 12,7 [C19CDAD6] [912A6DDD]
02 80,7 [6529C50C] [343BF465]
03 16,8 [87923801] [75859E4D]
04 18,6 [53ACD715] [D676F858]
05 57,7 [8463F125] [369F3E54]
06 34,6 [6EB9943D] [5C5888A7]
07 76,4 [D7087165] [F2559EFE]
08 91,2 [0DA656A3] [F69CA054]
09 75,6 [9A7FF81C] [5D5460B8]
10 67,2 [C6809E9D] [2B29E83C]
11 13,3 [1913964E] [7C551BDD]
12 59,1 [F59F22A0] [CCEEA82F]
13 55,1 [6AAD3B93] [85164A84]
14 31,8 [1DADE037] [23257148]
15 88,8 [A15E80CC] [D82C589B]
16 36,7 [13CAB463] [F199F634]
17 82,4 [4260B12A] [3D22CB45]
18 89,1 [069E9F8F] [DD831FF2]
19 31,5 [4C3FD8C1] [2313BEFA]
20 51,8 [3A1E1C49] [F15BC166]
21 39,0 [31123195] [9A912158]
22 42,0 [71254D73] [954C5FEA]
23 96,6 [999A5881] [376B6F19]
24 32,8 [CDC402DD] [D4526B76]
25 92,7 [4CE2E271] [EB139AB5]
Released: September 27, 2005 (AMG says: October 4)
01. Act Three. Scene 1: The Fugitive King (2:12)
02. But The Marquis Of Boulli Has A Trump Card Up His Sleeve' (4:28)
03. 'To Take Your Hat Off' (2:41)
04. 'The Echoes Never Fade From That Fusillade' (3:16)
05. Scene 2: The Commune De Paris (2:43)
06. 'Vive La Commune De Paris' (3:15)
07. 'The National Assembly Is Confused' (2:42)
08. Scene 3: The Execution Of Louis Capet (1:40)
09. 'Adieu Louis For You It'S Over' (3:46)
10. Scene 4: Marie Antoinette - The Last Night On Earth (1:36)
11. 'Adieu My Good And Tender Sister' (5:10)
12. Scene 5: Liberty (2:51)
13. 'And In The Bushes Where They Survive' (6:55)
EAC extraction logfile from 1. October 2005, 19:06 for CD
Ca Ira / Roger Waters

Used drive : PLEXTOR DVD-ROM PX-116A2 Adapter: 1 ID: 0
Read mode : Secure with NO C2, accurate stream, disable cache
Read offset correction : 102
Overread into Lead-In and Lead-Out : No

Used output format : Internal WAV Routines
44.100 Hz; 16 Bit; Stereo

Other options :
Fill up missing offset samples with silence : Yes
Delete leading and trailing silent blocks : No
Installed external ASPI interface

Track 1
Filename D:\Rip\Roger Waters - Ca Ira (2005) [WAV] {CD Version}\Disc 2 of 2\01 - The Fugitive King.wav

Pre-gap length 0:00:02.00

Peak level 33.5 %
Track quality 99.9 %
Test CRC A643361F
Copy CRC A643361F
Copy OK

Track 2
Filename D:\Rip\Roger Waters - Ca Ira (2005) [WAV] {CD Version}\Disc 2 of 2\02 - But the Marquis of Boulli has a trump card up his sleeve.wav

Peak level 90.9 %
Track quality 100.0 %
Test CRC F21F33FD
Copy CRC F21F33FD
Copy OK

Track 3
Filename D:\Rip\Roger Waters - Ca Ira (2005) [WAV] {CD Version}\Disc 2 of 2\03 - To take your hat off.wav

Peak level 75.1 %
Track quality 100.0 %
Test CRC 25A4DE98
Copy CRC 25A4DE98
Copy OK

Track 4
Filename D:\Rip\Roger Waters - Ca Ira (2005) [WAV] {CD Version}\Disc 2 of 2\04 - The echoes never fade from that fusillade.wav

Peak level 41.5 %
Track quality 99.9 %
Test CRC 82C44062
Copy CRC 82C44062
Copy OK

Track 5
Filename D:\Rip\Roger Waters - Ca Ira (2005) [WAV] {CD Version}\Disc 2 of 2\05 - The Commune de Paris.wav

Peak level 51.8 %
Track quality 100.0 %
Test CRC 0B620607
Copy CRC 0B620607
Copy OK

Track 6
Filename D:\Rip\Roger Waters - Ca Ira (2005) [WAV] {CD Version}\Disc 2 of 2\06 - Vive la Commune de Paris.wav

Peak level 64.4 %
Track quality 100.0 %
Test CRC DA26C0DA
Copy CRC DA26C0DA
Copy OK

Track 7
Filename D:\Rip\Roger Waters - Ca Ira (2005) [WAV] {CD Version}\Disc 2 of 2\07 - The National Assembly is confused.wav

Peak level 86.9 %
Track quality 100.0 %
Test CRC 6086DBF9
Copy CRC 6086DBF9
Copy OK

Track 8
Filename D:\Rip\Roger Waters - Ca Ira (2005) [WAV] {CD Version}\Disc 2 of 2\08 - The Execution of Louis Capet.wav

Peak level 52.7 %
Track quality 100.0 %
Test CRC 974FE9C1
Copy CRC 974FE9C1
Copy OK

Track 9
Filename D:\Rip\Roger Waters - Ca Ira (2005) [WAV] {CD Version}\Disc 2 of 2\09 - Adieu Louis for you it's over.wav

Peak level 95.3 %
Track quality 100.0 %
Test CRC E668178A
Copy CRC E668178A
Copy OK

Track 10
Filename D:\Rip\Roger Waters - Ca Ira (2005) [WAV] {CD Version}\Disc 2 of 2\10 - Marie Antoinette - The Last Night on Earth.wav

Peak level 37.3 %
Track quality 99.8 %
Test CRC CF488F3B
Copy CRC CF488F3B
Copy OK

Track 11
Filename D:\Rip\Roger Waters - Ca Ira (2005) [WAV] {CD Version}\Disc 2 of 2\11 - Adieu my good and tender sister.wav

Peak level 86.0 %
Track quality 100.0 %
Test CRC 13282261
Copy CRC 13282261
Copy OK

Track 12
Filename D:\Rip\Roger Waters - Ca Ira (2005) [WAV] {CD Version}\Disc 2 of 2\12 - Liberty.wav

Peak level 77.3 %
Track quality 100.0 %
Test CRC 63ADA7A4
Copy CRC 63ADA7A4
Copy OK

Track 13
Filename D:\Rip\Roger Waters - Ca Ira (2005) [WAV] {CD Version}\Disc 2 of 2\13 - And in the bushes where they survive.wav

Peak level 86.3 %
Track quality 100.0 %
Test CRC 1745FB56
Copy CRC 1745FB56
Copy OK

No errors occured

End of status report
[CUETools log; Date: 14.11.2010 11:16:03; Version: 2.0.9]
[CTDB TOCID: KVpvX9o4St_v3O19cVtFB2ci3HE-] found.
[ CTDBID ] Status
[6cb59354] (19/19) CD-Extra data track length 05:47:71, Accurately ripped
[AccurateRip ID: 00130829-00bf167a-960a230d] found.
Track [ CRC ] Status
01 [3240f551] (04/44) Accurately ripped
02 [f5c431f2] (03/42) Accurately ripped
03 [d69a9172] (03/43) Accurately ripped
04 [1dcd45e7] (03/43) Accurately ripped
05 [282528c2] (03/43) Accurately ripped
06 [e262d0f0] (03/43) Accurately ripped
07 [954f3536] (03/43) Accurately ripped
08 [042e74d7] (03/43) Accurately ripped
09 [3f930c52] (03/43) Accurately ripped
10 [beee068b] (03/43) Accurately ripped
11 [129a93d8] (03/43) Accurately ripped
12 [83b21eef] (03/43) Accurately ripped
13 [99c1626e] (03/43) Accurately ripped
Offsetted by -567:
01 [ea2d0b62] (40/44) Accurately ripped
02 [9e948be3] (39/42) Accurately ripped
03 [7fa65f58] (40/43) Accurately ripped
04 [f324d520] (40/43) Accurately ripped
05 [72ea8da2] (40/43) Accurately ripped
06 [293a744e] (40/43) Accurately ripped
07 [d84b5cc9] (40/43) Accurately ripped
08 [04fc0b5f] (40/43) Accurately ripped
09 [eabf0568] (40/43) Accurately ripped
10 [bce6041e] (40/43) Accurately ripped
11 [9e3c95fa] (40/43) Accurately ripped
12 [724509d6] (40/43) Accurately ripped
13 [ca64713a] (40/43) Accurately ripped

Track Peak [ CRC32 ] [W/O NULL]
-- 95,3 [6076B5E0] [968EBB4F]
01 33,5 [A643361F] [712C789D]
02 90,9 [F21F33FD] [82F2E55A]
03 75,1 [25A4DE98] [D03F2F66]
04 41,5 [82C44062] [980E7815]
05 51,8 [0B620607] [895378EC]
06 64,4 [DA26C0DA] [8560A035]
07 86,9 [6086DBF9] [216221E9]
08 52,7 [974FE9C1] [2E5129B1]
09 95,3 [E668178A] [689377C7]
10 37,3 [CF488F3B] [B56AD0CA]
11 86,0 [13282261] [038C5636]
12 77,3 [63ADA7A4] [A7B71189]
13 86,3 [1745FB56] [C0DBFF81]
 

Mike


post 27-Ноя-2010 21:51

 

нароооод! дайте скорости! ваще не качает нифига, хелп!!!
 

korobok


post 27-Ноя-2010 22:26

 

С огромным удовольствием добавил бы скорости, но, к сожалению, раздача почему-то никак не идёт и у меня в клиенте Вас даже в списке личеров нет. Не хотят наши клиенты коннектиться, хоть тресни. На многих раздачах такая штука присутствует. Кому-то запросто раздаётся, кому-то нет. Так что надо набраться терпения. У меня отдача 1,5 мегабита, может кому и отдам быстро, а Вы у него качнёте.
 

Mike


post 04-Дек-2010 22:32

 

Понимаю. 93 процента дотянул, очень надеюсь что вскоре закончу. С раздачи уходить не буду - пусть старину Роджера другие тянут! Еще раз спасибо за прекрасный пост!
 

EricNolan


post 23-Фев-2019 11:55

 

Thank you!!
 

Gabriel


post 11-Апр-2019 08:20

 

Muchas gracias por la musica.
 
Показать сообщения:    
Ответить на тему

Текущее время: 24-Апр 21:46

Часовой пояс: GMT + 3



Вы не можете начинать темы
Вы не можете отвечать на сообщения
Вы не можете редактировать свои сообщения
Вы не можете удалять свои сообщения
Вы не можете голосовать в опросах
Вы не можете прикреплять файлы к сообщениям
Вы не можете скачивать файлы



В начало страницы  •