Loading...
Error
Регистрация  · 
Имя: Пароль:    
 ·  Забыли пароль?
Правила пользования ресурсом

Сегодня идет свободное скачивание без начисления скачанного

(Rock) Кукрыниксы - Всадники Света - 2010, FLAC (tracks), lossless

Ответить на тему
 
Автор Сообщение

korobok


post 12-Сен-2010 17:21

 

Кукрыниксы - Всадники Света


Страна: Россия
Жанр: Rock
Год выпуска: 2010
Формат: FLAC (tracks)
Битрейт аудио: lossless
Продолжительность: 00:48:26

Трэклист:
01. Ад Для Героев (4:27)
02. ЗЛО (4:07)
03. День Рождения (3:46)
04. Мой Бог (3:58)
05. Всадники Света (3:10)
06. Музыка (4:45)
07. Семидесятники (3:36)
08. Дождь Смывает Всё! (3:52)
09. Клетка (3:18)
10. Цвет Ночи (4:55)
11. Ангел С Грязным Лицом (3:34)
12. Чёрный Ворон (народная песня) (4:59)
Exact Audio Copy V0.99 prebeta 5 from 4. May 2009

EAC extraction logfile from 10. September 2010, 23:25

Кукрыниксы / Всадники Света

Used drive : Optiarc DVD RW AD-7173S Adapter: 6 ID: 0

Read mode : Secure
Utilize accurate stream : Yes
Defeat audio cache : Yes
Make use of C2 pointers : No

Read offset correction : 48
Overread into Lead-In and Lead-Out : No
Fill up missing offset samples with silence : Yes
Delete leading and trailing silent blocks : No
Null samples used in CRC calculations : Yes
Used interface : Native Win32 interface for Win NT & 2000
Gap handling : Appended to previous track

Used output format : Internal WAV Routines
Sample format : 44.100 Hz; 16 Bit; Stereo

TOC of the extracted CD

Track | Start | Length | Start sector | End sector
---------------------------------------------------------
1 | 0:00.00 | 4:26.42 | 0 | 19991
2 | 4:26.42 | 4:06.47 | 19992 | 38488
3 | 8:33.14 | 3:46.09 | 38489 | 55447
4 | 12:19.23 | 3:57.48 | 55448 | 73270
5 | 16:16.71 | 3:10.31 | 73271 | 87551
6 | 19:27.27 | 4:44.42 | 87552 | 108893
7 | 24:11.69 | 3:36.32 | 108894 | 125125
8 | 27:48.26 | 3:52.09 | 125126 | 142534
9 | 31:40.35 | 3:17.65 | 142535 | 157374
10 | 34:58.25 | 4:54.44 | 157375 | 179468
11 | 39:52.69 | 3:34.12 | 179469 | 195530
12 | 43:27.06 | 4:59.23 | 195531 | 217978

Track 1

Filename D:\lossless\Всадники Света\01 Кукрыниксы - Ад Для Героев.wav

Pre-gap length 0:00:02.00

Peak level 98.9 %
Track quality 100.0 %
Test CRC E66E2156
Copy CRC E66E2156
Track not present in AccurateRip database
Copy OK

Track 2

Filename D:\lossless\Всадники Света\02 Кукрыниксы - ЗЛО.wav

Peak level 98.9 %
Track quality 100.0 %
Test CRC CAF94636
Copy CRC CAF94636
Track not present in AccurateRip database
Copy OK

Track 3

Filename D:\lossless\Всадники Света\03 Кукрыниксы - День Рождения.wav

Peak level 98.9 %
Track quality 99.9 %
Test CRC DEC5C207
Copy CRC DEC5C207
Track not present in AccurateRip database
Copy OK

Track 4

Filename D:\lossless\Всадники Света\04 Кукрыниксы - Мой Бог.wav

Peak level 98.9 %
Track quality 100.0 %
Test CRC 3BDBBD21
Copy CRC 3BDBBD21
Track not present in AccurateRip database
Copy OK

Track 5

Filename D:\lossless\Всадники Света\05 Кукрыниксы - Всадники Света.wav

Peak level 98.9 %
Track quality 100.0 %
Test CRC E240DE84
Copy CRC E240DE84
Track not present in AccurateRip database
Copy OK

Track 6

Filename D:\lossless\Всадники Света\06 Кукрыниксы - Музыка.wav

Peak level 98.9 %
Track quality 99.9 %
Test CRC B2637A1D
Copy CRC B2637A1D
Track not present in AccurateRip database
Copy OK

Track 7

Filename D:\lossless\Всадники Света\07 Кукрыниксы - Семидесятники.wav

Peak level 98.9 %
Track quality 100.0 %
Test CRC FC6D8D32
Copy CRC FC6D8D32
Track not present in AccurateRip database
Copy OK

Track 8

Filename D:\lossless\Всадники Света\08 Кукрыниксы - Дождь Смывает Всё!.wav

Peak level 98.9 %
Track quality 99.9 %
Test CRC 837BB390
Copy CRC 837BB390
Track not present in AccurateRip database
Copy OK

Track 9

Filename D:\lossless\Всадники Света\09 Кукрыниксы - Клетка.wav

Peak level 98.9 %
Track quality 100.0 %
Test CRC E6D7F0D9
Copy CRC E6D7F0D9
Track not present in AccurateRip database
Copy OK

Track 10

Filename D:\lossless\Всадники Света\10 Кукрыниксы - Цвет Ночи.wav

Peak level 98.9 %
Track quality 100.0 %
Test CRC D0686E89
Copy CRC D0686E89
Track not present in AccurateRip database
Copy OK

Track 11

Filename D:\lossless\Всадники Света\11 Кукрыниксы - Ангел С Грязным Лицом.wav

Peak level 98.9 %
Track quality 99.9 %
Test CRC CD6D3B95
Copy CRC CD6D3B95
Track not present in AccurateRip database
Copy OK

Track 12

Filename D:\lossless\Всадники Света\12 Кукрыниксы - Чёрный Ворон (народная песня).wav

Peak level 98.8 %
Track quality 100.0 %
Test CRC 98361832
Copy CRC 98361832
Track not present in AccurateRip database
Copy OK

None of the tracks are present in the AccurateRip database

No errors occurred

End of status report
Download

Скачать (бесплатно и на максимальной скорости)!

Как скачивать  ·   Что такое torrent (торрент)  ·   Рейтинг и ограничения

Сайт не распространяет и не хранит электронные версии произведений, а лишь предоставляет доступ к создаваемому пользователями каталогу ссылок на торрент-файлы, которые содержат только списки хеш-сумм


 

Mishkin


post 12-Сен-2010 22:36

 

Спасибо!
 
Показать сообщения:    
Ответить на тему

Текущее время: 18-Сен 23:18

Часовой пояс: GMT + 3



Вы не можете начинать темы
Вы не можете отвечать на сообщения
Вы не можете редактировать свои сообщения
Вы не можете удалять свои сообщения
Вы не можете голосовать в опросах
Вы не можете прикреплять файлы к сообщениям
Вы не можете скачивать файлы



В начало страницы  •