Loading...
Error
Регистрация  · 
Имя: Пароль:    
 ·  Забыли пароль?
Правила пользования ресурсом

Сегодня идет свободное скачивание без начисления скачанного

(Rock) Александр Васильев - Черновики (Подарочное издание) - 2004, FLAC (image + .cue), lossless

Ответить на тему
 
Автор Сообщение

korobok


post 09-Авг-2010 22:07

 

Александр Васильев - Черновики (Подарочное издание)


Страна: Russia
Жанр: Rock
Год выпуска: 2004
Издатель:
Формат:
Битрейт аудио: lossless
Продолжительность: 01:04:40

Трэклист:

01. Кто-то не успел (3:15)
02. Мне 20 лет (2:33)
03. Конец прекрасной эпохи (И. Бродский) (5:49)
04. Бонни и Клайд (3:13)
05. Загладь вину свою (1:56)
06. Паузы (А. Макаревич) (4:05)
07. Корень Мандрагоры (2:32)
08. Небо в алмазах (2:46)
09. Мария и Хуана (4:45)
10. Домовой (3:35)
11. Романс (2:31)
12. Скоро будет солнечно (4:20)
13. Двое не спят (3:24)
14. Рождество (3:57)
15. Пурга-кочерга (1:36)
16. Двуречье (Я ничего не скрыл) (4:12)
17. Подводная лодка (2:53)
18. Аделаида (Б.Г.) (3:36)
19. На братских могилах (В. Высоцкий) (2:15)
20. Сумасшедший дом (1:27)
Exact Audio Copy V0.99 prebeta 3 from 28. July 2007

Отчёт EAC об извлечении, выполненном 17. декабря 2007, 18:41

Александр Васильев / Черновики

Дисковод: SONY CD-RW CRX320E Adapter: 1 ID: 0

Режим чтения : Достоверность
Использование точного потока : Да
Отключение кэша аудио : Да
Использование указателей C2 : Нет

Коррекция смещения при чтении : 6
Способность читать области Lead-in и Lead-out : Нет
Заполнение пропущенных сэмплов тишиной : Да
Удаление блоков с тишиной в начале и конце : Нет
При вычислениях CRC использовались нулевые сэмплы : Да
Интерфейс : Встроенный Win32-интерфейс для Win NT/2000

Выходной формат : Внутренние WAV-операции
Формат сэмплов : 44.100 Гц; 16 бит; стерео

TOC извлечённого CD

Трек | Старт | Длительность | Начальный сектор | Конечный сектор
---------------------------------------------------------------------
1 | 0:00.00 | 3:14.44 | 0 | 14593
2 | 3:14.44 | 2:32.49 | 14594 | 26042
3 | 5:47.18 | 5:49.18 | 26043 | 52235
4 | 11:36.36 | 3:12.39 | 52236 | 66674
5 | 14:49.00 | 1:55.41 | 66675 | 75340
6 | 16:44.41 | 4:05.37 | 75341 | 93752
7 | 20:50.03 | 2:31.43 | 93753 | 105120
8 | 23:21.46 | 2:45.57 | 105121 | 117552
9 | 26:07.28 | 4:45.01 | 117553 | 138928
10 | 30:52.29 | 3:35.19 | 138929 | 155072
11 | 34:27.48 | 2:31.05 | 155073 | 166402
12 | 36:58.53 | 4:20.37 | 166403 | 185939
13 | 41:19.15 | 3:23.56 | 185940 | 201220
14 | 44:42.71 | 3:57.32 | 201221 | 219027
15 | 48:40.28 | 1:35.56 | 219028 | 226208
16 | 50:16.09 | 4:11.51 | 226209 | 245084
17 | 54:27.60 | 2:53.15 | 245085 | 258074
18 | 57:21.00 | 3:36.35 | 258075 | 274309
19 | 60:57.35 | 2:14.65 | 274310 | 284424
20 | 63:12.25 | 1:27.15 | 284425 | 290964
21 | 67:11.40 | 0:07.03 | 302365 | 302892

Характеристики диапазона извлечения и сообщения об ошибках

Выбранный диапазон

Имя файла C:\Documents and Settings\NiX\Мои документы\Unknown Artist - Unknown Title.wav
Пиковый уровень 100.0 %
Качество диапазона 99.9 %
CRC копии CF458EB8
Копирование... OK

Ошибок не произошло

Конец отчёта
AUDIOCHECKER v2.0 beta (build 457) - by Dester - [email protected]
~~~~~~~~~~~~~~~~~~~~~~~~~~~~~~~~~~

Начато: воскресенье, 08. 08. 2010. - 12:45.01
Найдено файлов: 1

1 -===- Z:\home\stas\data\музыка\Александр Васильев - 2004 - Черновики (Подарочное издание)\Александр Васильев - Черновики.wav
Заключение: этот трек - CDDA с вероятностью 100%

Завершено: воскресенье, 08. 08. 2010. - 12:51.43 (Время операции: 0:06.41)

Спасибо оригинальному релизёру _stas_ за прекрасный материал.
Download

Скачать (бесплатно и на максимальной скорости)!

Как скачивать  ·   Что такое torrent (торрент)  ·   Рейтинг и ограничения

Сайт не распространяет и не хранит электронные версии произведений, а лишь предоставляет доступ к создаваемому пользователями каталогу ссылок на торрент-файлы, которые содержат только списки хеш-сумм


 

Chupa


post 04-Сен-2017 16:03

 

Жаль, но гипертекстовой ссылки на тег для скачивания нет...
ac
 
Показать сообщения:    
Ответить на тему

Текущее время: 24-Сен 17:07

Часовой пояс: GMT + 3



Вы не можете начинать темы
Вы не можете отвечать на сообщения
Вы не можете редактировать свои сообщения
Вы не можете удалять свои сообщения
Вы не можете голосовать в опросах
Вы не можете прикреплять файлы к сообщениям
Вы не можете скачивать файлы



В начало страницы  •