Loading...
Error
Регистрация  · 
Имя: Пароль:    
 ·  Забыли пароль?
Правила пользования ресурсом

Сегодня идет свободное скачивание без начисления скачанного

(Rock) Владимир Кузьмин - Собрание лучших лирических песен - 1996, FLAC (image + .cue), lossless

Ответить на тему
 
Автор Сообщение

korobok


post 08-Авг-2010 23:25

 

Владимир Кузьмин - Собрание лучших лирических песен


Страна: Россия
Жанр: Rock
Год выпуска: 1996
Формат: FLAC (image + .cue)
Битрейт аудио: lossless
Продолжительность: 02:16:54

Трэклист:
01. Как ты живешь без меня? (4:55)
02. Душа ('Невольница Желтой Земли') (4:51)
03. Все, что я хочу (5:00)
04. Пристань твоей надежды (4:41)
05. Мама, я попал в беду (6:20)
06. Девушка со скрипкой (4:42)
07. Ливень (6:33)
08. По-прежнему вдвоем (4:14)
09. Странные дни (4:57)
10. Тоска (8:30)
Exact Audio Copy V0.99 prebeta 5 from 4. May 2009

Отчёт EAC об извлечении, выполненном 18. июня 2009, 20:55

В. Кузьмин / Собрание лучших лирических песен - том 1

Дисковод: PIONEER DVD-RW DVR-216D Adapter: 0 ID: 1

Режим чтения : Достоверность
Использование точного потока : Да
Отключение кэша аудио : Да
Использование указателей C2 : Нет

Коррекция смещения при чтении : 96
Способность читать области Lead-in и Lead-out : Нет
Заполнение пропущенных сэмплов тишиной : Да
Удаление блоков с тишиной в начале и конце : Нет
При вычислениях CRC использовались нулевые сэмплы : Да
Интерфейс : Установленный внешний ASPI-интерфейс

Выходной формат : Пользовательский кодировщик
Выбранный битрейт : 128 kBit/s
Качество : Высокий
Добавление ID3-тэга : Нет
Утилита сжатия : C:\Program Files\Exact Audio Copy\Flac\flac.exe
Дополнительные параметры : -V -8 -T "Artist=%a" -T "Title=%t" -T "Album=%g" -T "Year=%y" -T "Tracknumber=%n" -T "Genre=%m" -T "Comment=%e" %s

TOC извлечённого CD

Трек | Старт | Длительность | Начальный сектор | Конечный сектор
---------------------------------------------------------------------
1 | 0:00.17 | 4:54.65 | 17 | 22131
2 | 4:55.07 | 4:50.43 | 22132 | 43924
3 | 9:45.50 | 4:59.72 | 43925 | 66421
4 | 14:45.47 | 4:40.48 | 66422 | 87469
5 | 19:26.20 | 6:19.67 | 87470 | 115961
6 | 25:46.12 | 4:42.03 | 115962 | 137114
7 | 30:28.15 | 6:33.17 | 137115 | 166606
8 | 37:01.32 | 4:13.65 | 166607 | 185646
9 | 41:15.22 | 4:57.35 | 185647 | 207956
10 | 46:12.57 | 8:30.00 | 207957 | 246206

Характеристики диапазона извлечения и сообщения об ошибках

Выбранный диапазон

Имя файла C:\Documents and Settings\Администратор\Мои документы\Моя музыка\В. Кузьмин - Собрание лучших лирических песен - том 1.wav

Пиковый уровень 100.0 %
Качество диапазона 100.0 %
CRC теста CD484127
CRC копии CD484127
Копирование... OK

Ошибок не произошло

AccurateRip: сводка

Трек 1 нет в базе данных
Трек 2 нет в базе данных
Трек 3 нет в базе данных
Трек 4 нет в базе данных
Трек 5 нет в базе данных
Трек 6 нет в базе данных
Трек 7 нет в базе данных
Трек 8 нет в базе данных
Трек 9 нет в базе данных
Трек 10 нет в базе данных

Ни одного трека нет в базе AccurateRip

Конец отчёта
01. Я не забуду тебя ('Сибирские морозы') (6:05)
02. Когда меня ты позовешь (7:14)
03. Моя любовь (3:25)
04. Если бы ты знала (5:10)
05. Ясная звезда ('Без тебя') (5:02)
06. Похожа на мечту (4:44)
07. Простой сюжет (3:34)
08. Так будь же счастлива теперь (5:25)
09. Вы так невинны... (3:47)
10. Долгая ночь (4:25)
Exact Audio Copy V0.99 prebeta 5 from 4. May 2009

Отчёт EAC об извлечении, выполненном 18. июня 2009, 21:20

В. Кузьмин / Собрание лучших лирических песен - том 2

Дисковод: PIONEER DVD-RW DVR-216D Adapter: 0 ID: 1

Режим чтения : Достоверность
Использование точного потока : Да
Отключение кэша аудио : Да
Использование указателей C2 : Нет

Коррекция смещения при чтении : 96
Способность читать области Lead-in и Lead-out : Нет
Заполнение пропущенных сэмплов тишиной : Да
Удаление блоков с тишиной в начале и конце : Нет
При вычислениях CRC использовались нулевые сэмплы : Да
Интерфейс : Установленный внешний ASPI-интерфейс

Выходной формат : Пользовательский кодировщик
Выбранный битрейт : 128 kBit/s
Качество : Высокий
Добавление ID3-тэга : Нет
Утилита сжатия : C:\Program Files\Exact Audio Copy\Flac\flac.exe
Дополнительные параметры : -V -8 -T "Artist=%a" -T "Title=%t" -T "Album=%g" -T "Year=%y" -T "Tracknumber=%n" -T "Genre=%m" -T "Comment=%e" %s

TOC извлечённого CD

Трек | Старт | Длительность | Начальный сектор | Конечный сектор
---------------------------------------------------------------------
1 | 0:00.23 | 6:05.30 | 23 | 27427
2 | 6:05.53 | 7:14.37 | 27428 | 60014
3 | 13:20.15 | 3:25.25 | 60015 | 75414
4 | 16:45.40 | 5:10.35 | 75415 | 98699
5 | 21:56.00 | 5:02.03 | 98700 | 121352
6 | 26:58.03 | 4:44.00 | 121353 | 142652
7 | 31:42.03 | 3:33.57 | 142653 | 158684
8 | 35:15.60 | 5:24.63 | 158685 | 183047
9 | 40:40.48 | 3:46.55 | 183048 | 200052
10 | 44:27.28 | 4:24.52 | 200053 | 219904

Характеристики диапазона извлечения и сообщения об ошибках

Выбранный диапазон

Имя файла C:\Documents and Settings\Администратор\Мои документы\Моя музыка\В. Кузьмин - Собрание лучших лирических песен - том 2.wav

Пиковый уровень 99.6 %
Качество диапазона 99.8 %
CRC теста E6A75682
CRC копии E6A75682
Копирование... OK

Ошибок не произошло

AccurateRip: сводка

Трек 1 нет в базе данных
Трек 2 нет в базе данных
Трек 3 нет в базе данных
Трек 4 нет в базе данных
Трек 5 нет в базе данных
Трек 6 нет в базе данных
Трек 7 нет в базе данных
Трек 8 нет в базе данных
Трек 9 нет в базе данных
Трек 10 нет в базе данных

Ни одного трека нет в базе AccurateRip

Конец отчёта
01. Просто я люблю тебя (5:42)
02. Огонь ('Обойдет стороной суета') (7:17)
03. Подогрей мне молока (5:28)
04. Голос (3:36)
05. Менестрели (4:18)
06. Последняя весна (1:41)
07. Теряю тебя (4:36)
08. Лед слезы льет (4:53)
09. Прощальный блюз (5:48)
Exact Audio Copy V0.99 prebeta 5 from 4. May 2009

Отчёт EAC об извлечении, выполненном 18. июня 2009, 21:42

В. Кузьмин / Собрание лучших лирических песен - том 3

Дисковод: PIONEER DVD-RW DVR-216D Adapter: 0 ID: 1

Режим чтения : Достоверность
Использование точного потока : Да
Отключение кэша аудио : Да
Использование указателей C2 : Нет

Коррекция смещения при чтении : 96
Способность читать области Lead-in и Lead-out : Нет
Заполнение пропущенных сэмплов тишиной : Да
Удаление блоков с тишиной в начале и конце : Нет
При вычислениях CRC использовались нулевые сэмплы : Да
Интерфейс : Установленный внешний ASPI-интерфейс

Выходной формат : Пользовательский кодировщик
Выбранный битрейт : 128 kBit/s
Качество : Высокий
Добавление ID3-тэга : Нет
Утилита сжатия : C:\Program Files\Exact Audio Copy\Flac\flac.exe
Дополнительные параметры : -V -8 -T "Artist=%a" -T "Title=%t" -T "Album=%g" -T "Year=%y" -T "Tracknumber=%n" -T "Genre=%m" -T "Comment=%e" %s

TOC извлечённого CD

Трек | Старт | Длительность | Начальный сектор | Конечный сектор
---------------------------------------------------------------------
1 | 0:00.30 | 5:41.48 | 30 | 25652
2 | 5:42.03 | 7:17.22 | 25653 | 58449
3 | 12:59.25 | 5:27.45 | 58450 | 83019
4 | 18:26.70 | 3:36.30 | 83020 | 99249
5 | 22:03.25 | 4:18.03 | 99250 | 118602
6 | 26:21.28 | 1:41.27 | 118603 | 126204
7 | 28:02.55 | 4:35.43 | 126205 | 146872
8 | 32:38.23 | 4:52.60 | 146873 | 168832
9 | 37:31.08 | 5:47.57 | 168833 | 194914

Характеристики диапазона извлечения и сообщения об ошибках

Выбранный диапазон

Имя файла C:\Documents and Settings\Администратор\Мои документы\Моя музыка\В. Кузьмин - Собрание лучших лирических песен - том 3.wav

Пиковый уровень 99.9 %
Качество диапазона 100.0 %
CRC теста D4B2EFCC
CRC копии D4B2EFCC
Копирование... OK

Ошибок не произошло

AccurateRip: сводка

Трек 1 нет в базе данных
Трек 2 нет в базе данных
Трек 3 нет в базе данных
Трек 4 нет в базе данных
Трек 5 нет в базе данных
Трек 6 нет в базе данных
Трек 7 нет в базе данных
Трек 8 нет в базе данных
Трек 9 нет в базе данных

Ни одного трека нет в базе AccurateRip

Конец отчёта
Download

Скачать (бесплатно и на максимальной скорости)!

Как скачивать  ·   Что такое torrent (торрент)  ·   Рейтинг и ограничения

Сайт не распространяет и не хранит электронные версии произведений, а лишь предоставляет доступ к создаваемому пользователями каталогу ссылок на торрент-файлы, которые содержат только списки хеш-сумм


 

rwa12


post 09-Авг-2010 00:01

 

Отличная вещь,оригинальные песни,звучат так как должны,качественный звук.Очень рекомендую.
Если кому то надо,есть вот такой имидж
 

taksist


post 11-Авг-2010 10:45

 

ar ar ar Как человек с музыкальным образованием скажу: Качество великолепное ОГРОМНОЕ СПАСИБО !!!!! ar ar ar
 

Budzega


post 16-Май-2011 08:53

 

Спасибо, дружище...порадовал.
 
Показать сообщения:    
Ответить на тему

Текущее время: 20-Июн 12:29

Часовой пояс: GMT + 3



Вы не можете начинать темы
Вы не можете отвечать на сообщения
Вы не можете редактировать свои сообщения
Вы не можете удалять свои сообщения
Вы не можете голосовать в опросах
Вы не можете прикреплять файлы к сообщениям
Вы не можете скачивать файлы



В начало страницы  •