Loading...
Error
Регистрация  · 
Имя: Пароль:    
 ·  Забыли пароль?
Правила пользования ресурсом

Сегодня идет свободное скачивание без начисления скачанного

(Rock, R&B, Psychedelic Rock, Art Rock) Воскресение - Звездная серия - 2003, FLAC (image + .cue), lossless

Ответить на тему
 
Автор Сообщение

korobok


post 08-Авг-2010 12:03

 

Воскресение - Звездная серия


Страна: Russia
Жанр: Rock, R&B, Psychedelic Rock, Art Rock
Год выпуска: 2003
Формат: FLAC (image + .cue)
Битрейт аудио: lossless
Продолжительность: 01:13:30

Трэклист:
01. Все сначала (3:38)
02. Пятна (3:41)
03. Последняя любовь (3:30)
04. Снежная баба (3:00)
05. Кто виноват (4:20)
06. По дороге разочарований (5:25)
07. В жизни, как в темной чаще (5:54)
08. Я ни разу за морем не был (3:24)
09. Друзьям (3:28)
10. Сон (4:38)
11. Лето (3:11)
12. Сколько было звезд (3:30)
13. Так бывает (2:59)
14. Вера, Надежда, Любовь (3:50)
15. Солдат Вселенной (5:46)
16. Хороший парень (3:15)
17. Случилось что-то (4:02)
18. Есть у меня (2:52)
19. Поезд (3:05)
Exact Audio Copy V0.99 prebeta 3 from 28. July 2007

Отчёт EAC об извлечении, выполненном 22. сентября 2007, 10:10

Воскресение / Звездная серия

Дисковод: _NEC DVD_RW ND-3520AW Adapter: 1 ID: 2

Режим чтения : Достоверность
Использование точного потока : Да
Отключение кэша аудио : Да
Использование указателей C2 : Нет

Коррекция смещения при чтении : 48
Способность читать области Lead-in и Lead-out : Нет
Заполнение пропущенных сэмплов тишиной : Да
Удаление блоков с тишиной в начале и конце : Нет
При вычислениях CRC использовались нулевые сэмплы : Да
Интерфейс : Встроенный Win32-интерфейс для Win NT/2000

Выходной формат : Внутренние WAV-операции
Формат сэмплов : 44.100 Гц; 16 бит; стерео

TOC извлечённого CD

Трек | Старт | Длительность | Начальный сектор | Конечный сектор
---------------------------------------------------------------------
1 | 0:00.00 | 3:37.55 | 0 | 16329
2 | 3:37.55 | 3:41.02 | 16330 | 32906
3 | 7:18.57 | 3:30.21 | 32907 | 48677
4 | 10:49.03 | 2:59.59 | 48678 | 62161
5 | 13:48.62 | 4:20.07 | 62162 | 81668
6 | 18:08.69 | 5:25.00 | 81669 | 106043
7 | 23:33.69 | 5:54.15 | 106044 | 132608
8 | 29:28.09 | 3:23.42 | 132609 | 147875
9 | 32:51.51 | 3:27.38 | 147876 | 163438
10 | 36:19.14 | 4:38.20 | 163439 | 184308
11 | 40:57.34 | 3:11.32 | 184309 | 198665
12 | 44:08.66 | 3:29.68 | 198666 | 214408
13 | 47:38.59 | 2:59.17 | 214409 | 227850
14 | 50:38.01 | 3:50.33 | 227851 | 245133
15 | 54:28.34 | 5:46.05 | 245134 | 271088
16 | 60:14.39 | 3:15.25 | 271089 | 285738
17 | 63:29.64 | 4:02.37 | 285739 | 303925
18 | 67:32.26 | 2:52.18 | 303926 | 316843
19 | 70:24.44 | 3:05.15 | 316844 | 330733

Характеристики диапазона извлечения и сообщения об ошибках

Выбранный диапазон

Имя файла E:\Music Lossless\Воскресение - Звездная серия (2003)\Воскресение - Звездная серия.wav

Пиковый уровень 98.3 %
Качество диапазона 99.9 %
CRC копии 016FE42B
Копирование... OK

Ошибок не произошло

Конец отчёта

Благодарность оригинальному релизёру Solomon2302
Download

Скачать (бесплатно и на максимальной скорости)!

Как скачивать  ·   Что такое torrent (торрент)  ·   Рейтинг и ограничения

Сайт не распространяет и не хранит электронные версии произведений, а лишь предоставляет доступ к создаваемому пользователями каталогу ссылок на торрент-файлы, которые содержат только списки хеш-сумм


 
Показать сообщения:    
Ответить на тему

Текущее время: 17-Дек 20:35

Часовой пояс: GMT + 3



Вы не можете начинать темы
Вы не можете отвечать на сообщения
Вы не можете редактировать свои сообщения
Вы не можете удалять свои сообщения
Вы не можете голосовать в опросах
Вы не можете прикреплять файлы к сообщениям
Вы не можете скачивать файлы



В начало страницы  •