Loading...
Error
Регистрация  · 
Имя: Пароль:    
 ·  Забыли пароль?
Правила пользования ресурсом

Обладатель VIP статуса на 24 часа: nikola120
стань следующим читай правила
Сегодня идет свободное скачивание без начисления скачанного

Первому игроку приготовиться / Ready Player One (Стивен Спилберг) [2018 г., фантастика, боевик, приключения, HDRip 720p] [Android] | DUB [iTunes]

Ответить на тему
 
Автор Сообщение

Theseus


post 04-Июл-2018 16:53

 

Первому игроку приготовиться / Ready Player One

Год выхода: 2018
Страна: США
Жанр: Фантастика, боевик, приключения
Продолжительность: 02:19:58
Перевод: Профессиональный (полное дублирование) | iTunes
Субтитры: Отсутствуют
Режиссер: Стивен Спилберг
В ролях: Тай Шеридан, Оливия Кук, Бен Мендельсон, Лина Уэйте, ТиДжей Миллер, Саймон Пегг, Марк Райлэнс, Филип Чжао, Уин Морисаки, Ханна Джон-Кэймен, Ралф Айнесон, Сьюзэн Линч, Клер Хиггинс, Лоуренс Спэллман, Пердита Викс, Джоэль МакКормэк, Кит Коннор, Лео Хеллер, Линн Уилморт
О фильме: Действие фильма происходит в 2045 году, мир погружается в хаос и находится на грани коллапса. Люди ищут спасения в игре OASIS — огромной вселенной виртуальной реальности. Ее создатель, гениальный и эксцентричный Джеймс Холлидэй, оставляет уникальное завещание. Все его колоссальное состояние получит игрок, первым обнаруживший цифровое «пасхальное яйцо», которое миллиардер спрятал где-то на просторах OASISа. Запущенный им квест охватывает весь мир. Совершенно негероический парень по имени Уэйд Уоттс решает принять участие в состязании, с головой бросаясь в головокружительную, искажающую реальность погоню за сокровищами по фантастической вселенной, полной загадок, открытий и опасностей.

Качество: HDRip 720p
Формат: MP4
Видео кодек: x.264
Аудио кодек: HE-AAC
Видео: AVC, 1280x536 (2.40:1), 23.976 fps, 1020 Kbps
Аудио: HE-AAC / LC, 48.0 KHz, 2 ch, 128 Kbps

Код:

Общее
Полное имя                               : Ready.Player.One.2018.720p.mp4
Формат                                   : MPEG-4
Профиль формата                          : Base Media
Идентификатор кодека                     : isom (isom/iso2/avc1/mp41)
Размер файла                             : 1,11 Гбайт
Продолжительность                        : 2 ч. 19 м.
Общий поток                              : 1131 Кбит/сек
HDVideo                                  : Yes

Видео
Идентификатор                            : 1
Формат                                   : AVC
Формат/Информация                        : Advanced Video Codec
Профиль формата                          : [email protected]
Настройки формата                        : CABAC / 12 Ref Frames
Параметр CABAC формата                   : Да
Параметр RefFrames формата               : 12 кадров
Идентификатор кодека                     : avc1
Идентификатор кодека/Информация          : Advanced Video Coding
Продолжительность                        : 2 ч. 19 м.
Битрейт                                  : 1020 Кбит/сек
Ширина                                   : 1280 пикселей
Высота                                   : 536 пикселей
Соотношение сторон                       : 2,40:1
Режим частоты кадров                     : Постоянный
Частота кадров                           : 23,976 (24000/1001) кадра/сек
Цветовое пространство                    : YUV
Субдискретизация насыщенности            : 4:2:0
Битовая глубина                          : 8 бит
Тип развёртки                            : Прогрессивная
Бит/(Пиксели*Кадры)                      : 0.062
Размер потока                            : 999 Мбайт (88%)
Библиотека кодирования                   : x264 core 148 r2795 aaa9aa8
Настройки программы                      : cabac=1 / ref=12 / deblock=1:0:0 / analyse=0x3:0x133 / me=umh / subme=10 / psy=1 / psy_rd=1.00:0.00 / mixed_ref=1 / me_range=24 / chroma_me=1 / trellis=2 / 8x8dct=1 / cqm=0 / deadzone=21,11 / fast_pskip=1 / chroma_qp_offset=-2 / threads=96 / lookahead_threads=4 / sliced_threads=0 / nr=0 / decimate=1 / interlaced=0 / bluray_compat=0 / constrained_intra=0 / bframes=8 / b_pyramid=2 / b_adapt=2 / b_bias=0 / direct=3 / weightb=1 / open_gop=0 / weightp=2 / keyint=250 / keyint_min=23 / scenecut=40 / intra_refresh=0 / rc_lookahead=60 / rc=abr / mbtree=1 / bitrate=1020 / ratetol=1.0 / qcomp=0.60 / qpmin=0 / qpmax=69 / qpstep=4 / vbv_maxrate=31250 / vbv_bufsize=2045 / nal_hrd=none / filler=0 / ip_ratio=1.40 / aq=1:1.00
Цветовой диапазон                        : Limited
Основные цвета                           : BT.709
Характеристики трансфера                 : BT.709
Коэффициенты матрицы                     : BT.709

Аудио
Идентификатор                            : 2
Формат                                   : AAC
Формат/Информация                        : Advanced Audio Codec
Профиль формата                          : HE-AAC / LC
Настройки формата                        : Implicit
Идентификатор кодека                     : mp4a-40-2
Продолжительность                        : 2 ч. 19 м.
Вид битрейта                             : Постоянный
Битрейт                                  : 128 Кбит/сек
Каналы                                   : 2 канала
Расположение каналов                     : Front: L R
Частота                                  : 48,0 КГц / 24,0 КГц
Частота кадров                           : 23,438 кадра/сек (1024 SPF)
Метод сжатия                             : С потерями
Размер потока                            : 128 Мбайт (11%)
Default                                  : Да
AlternateGroup/String                    : 1


Download

Скачать (бесплатно и на максимальной скорости)!

Как скачивать  ·   Что такое torrent (торрент)  ·   Рейтинг и ограничения

Сайт не распространяет и не хранит электронные версии произведений, а лишь предоставляет доступ к создаваемому пользователями каталогу ссылок на торрент-файлы, которые содержат только списки хеш-сумм


 
Показать сообщения:    
Ответить на тему

Текущее время: 21-Ноя 21:38

Часовой пояс: GMT + 3



Вы не можете начинать темы
Вы не можете отвечать на сообщения
Вы не можете редактировать свои сообщения
Вы не можете удалять свои сообщения
Вы не можете голосовать в опросах
Вы не можете прикреплять файлы к сообщениям
Вы не можете скачивать файлы



В начало страницы  •