Loading...
Error
Регистрация  · 
Имя: Пароль:    
 ·  Забыли пароль?
Правила пользования ресурсом

Обладатель VIP статуса на 24 часа: nikola120
стань следующим читай правила
Сегодня идет свободное скачивание без начисления скачанного

Сваты 6 / Сезон: 6 Серии: 1-16 из 16 (Андрей Яковлев, Эдуард Радзюкевич) [2013, Комедия, DVB]

Ответить на тему
 
Автор Сообщение

HPV1974


post 23-Мар-2013 10:55

 


Сваты 6



Год выпуска: 2013
Производство: «Студия Квартал-95», телеканал «Интер»
Жанр: Комедия
Продолжительность серии: ~00:45
Режиссер: Андрей Яковлев, Эдуард Радзюкевич


В ролях:
Фёдор Добронравов, Татьяна Кравченко, Людмила Артемьева, Анна Кошмал, Александр Феклистов, Анна Полищук, Костя Чернокрылюк, Олеся Железняк, Николай Добрынин, Владимир Зельдин, Ольга Аросева, Даниил Белых, Инна Королёва, Эммануил Виторган, Елена Сафонова, Роман Лукьянов, Евгений Капорин, Фёдор Гуринец, Алексей Смолка, Денис Шепотинник, Татьяна Васильева, Мария Кочур, Екатерина Варченко.


Описание:
Женя Ковалева (Анна Кошмал) перестала быть готом и теперь у нее новые страдания - мальчики почти не обращают на нее внимания. Она плачет в подушку днями и ночами, а родители Евгении не знают, что делать. Близнецы снова проказничают и не дают родителям спокойно жить, постоянно достают страдающую старшую сестру. Когда бабушки и дедушка интересуются жизнью своих внуков и детей, родители вновь стараются скрыть все невзгоды их семьи, но это сделать не получается, ибо сваты чувствуют нечто неладное и приезжают к Маше(Инна Королёва) и Максиму(Даниил Белых). Конечно, они не могут оставить всё происходящее без дела и берутся за перевоспитание и усмирение близнецов Ковалевых, а также помогают Женечке решить ее проблему.

Качество: DVB (Amos 2/3 at 4.0°W)
Формат: MPEG
Видео кодек: MPEG2
Аудио кодек: MPEG1 Layer 2
Видео: MPEG2 Video 720x576 (4:3) 25.00fps ~4 600 Kbps, 0.432 bit/pixel
Аудио: MPEG Audio 48000Hz 2 channel 256 Кбит/сек


Общее
Полное имя 01_seriya_DVB_Files-x_RG Serialy.mpg
Формат : MPEG-PS
Размер файла : 1,65 Гбайт
Продолжительность : 47 м.
Режим общего битрейта : Переменный
Общий поток : 4971 Кбит/сек
Библиотека кодирования : (c) 1998-2010 Womble Multimedia, Inc. / MPEG Video Wizard DVD 5.0.0.114 (01/2010) / Nov 13 2010

Видео
Идентификатор : 224 (0xE0)
Формат : MPEG Video
Версия формата : Version 2
Профиль формата : [email protected]
Параметр BVOP формата : Да
Параметр матрицы формата : Выборочная
Параметр GOP формата : Variable
Продолжительность : 47 м.
Вид битрейта : Переменный
Битрейт : 4636 Кбит/сек
Ширина : 720 пикселей
Высота : 576 пикселей
Соотношение сторон : 4:3
Частота кадров : 25,000 кадров/сек
Стандарт вещания : PAL
Цветовое пространство : YUV
Субдискретизация насыщенности : 4:2:0
Битовая глубина : 8 бит
Тип развёртки : Чересстрочная
Порядок развёртки : Верхнее поле первое
Метод сжатия : С потерями
Бит/(Пиксели*Кадры) : 0.447
TimeCode_FirstFrame : 00:00:00:00
TimeCode_Source : Group of pictures header
Размер потока : 1,54 Гбайт (93%)
Библиотека кодирования : (c) 1998-2010 Womble Multimedia, Inc. / MPEG Video Wizard DVD 5.0.0.114 (01/2010) / Nov 13 2010

Аудио
Идентификатор : 192 (0xC0)
Формат : MPEG Audio
Версия формата : Version 1
Профиль формата : Layer 2
Продолжительность : 47 м.
Вид битрейта : Постоянный
Битрейт : 256 Кбит/сек
Каналы : 2 канала
Частота : 48,0 КГц
Метод сжатия : С потерями
Размер потока : 87,2 Мбайт (5%)




Download

Скачать (бесплатно и на максимальной скорости)!

Как скачивать  ·   Что такое torrent (торрент)  ·   Рейтинг и ограничения

Сайт не распространяет и не хранит электронные версии произведений, а лишь предоставляет доступ к создаваемому пользователями каталогу ссылок на торрент-файлы, которые содержат только списки хеш-сумм


 
Показать сообщения:    
Ответить на тему

Текущее время: 18-Окт 05:21

Часовой пояс: GMT + 3



Вы не можете начинать темы
Вы не можете отвечать на сообщения
Вы не можете редактировать свои сообщения
Вы не можете удалять свои сообщения
Вы не можете голосовать в опросах
Вы не можете прикреплять файлы к сообщениям
Вы не можете скачивать файлы



В начало страницы  •